Jacob Karlzon - Big 5
Жанр: Post-Bop
Носитель: CD
Страна-производитель диска (релиза): Швеция
Год издания: 2003
Издатель (лейбл): Prophone Records
Номер по каталогу: PCD 069
Аудиокодек: FLAC (*.flac)
Тип рипа: tracks+.cue
Битрейт аудио: lossless
Продолжительность: 74:31
Источник (релизер): Entrimo
Наличие сканов в содержимом раздачи: нет
Треклист:
01. Ups and Downs (6:38)
02. Questions (9:39)
03. Cesterbal (7:02)
04. Dark Place (5:43)
05. For Our Dearest (4:31)
06. Hillbillies (8:39)
07. Didn't See It Coming (8:04)
08. Kongo (7:03)
09. So Close (17:12)
Состав:
Jacob Karlzon - piano
Karl-Martin Almqvist - soprano saxophone, tenor saxophone, flute
Peter Asplund - trumpet, flugelhorn
Mattias Svensson - bass
Peter Danemo - drums, percussion
Viktoria Tolstoy - vocals (#9)
Recorded at Atlantis Studio, Stockholm on August 28-30, 2002.

Лог создания рипа

Exact Audio Copy V1.3 from 2. September 2016
EAC extraction logfile from 30. August 2018, 19:47
Jacob Karlzon / Big 5
Used drive : TSSTcorpCDDVDW SH-222AB Adapter: 1 ID: 0
Read mode : SecureUtilize accurate stream : YesDefeat audio cache : YesMake use of C2 pointers : No
Read offset correction : 6Overread into Lead-In and Lead-Out : NoFill up missing offset samples with silence : YesDelete leading and trailing silent blocks : NoNull samples used in CRC calculations : YesUsed interface : Native Win32 interface for Win NT & 2000Gap handling : Appended to previous track
Used output format : User Defined EncoderSelected bitrate : 1024 kBit/sQuality : HighAdd ID3 tag : NoCommand line compressor : C:\Program Files (x86)\Exact Audio Copy\Flac\flac.exeAdditional command line options : -8 -V -T "ARTIST=%artist%" -T "TITLE=%title%" -T "ALBUM=%albumtitle%" -T "DATE=%year%" -T "TRACKNUMBER=%tracknr%" -T "GENRE=%genre%" -T "PERFORMER=%albuminterpret%" -T "COMPOSER=%composer%" %haslyrics%--tag-from-file=LYRICS="%lyricsfile%"%haslyrics% -T "ALBUMARTIST=%albumartist%" -T "DISCNUMBER=%cdnumber%" -T "TOTALDISCS=%totalcds%" -T "TOTALTRACKS=%numtracks%" -T "COMMENT=%comment%" %source% -o %dest%
TOC of the extracted CD
Track | Start | Length | Start sector | End sector --------------------------------------------------------- 1 | 0:00.00 | 6:38.03 | 0 | 29852 2 | 6:38.03 | 9:38.64 | 29853 | 73266 3 | 16:16.67 | 7:01.63 | 73267 | 104904 4 | 23:18.55 | 5:42.59 | 104905 | 130613 5 | 29:01.39 | 4:31.04 | 130614 | 150942 6 | 33:32.43 | 8:39.00 | 150943 | 189867 7 | 42:11.43 | 8:04.20 | 189868 | 226187 8 | 50:15.63 | 7:02.49 | 226188 | 257886 9 | 57:18.37 | 17:11.48 | 257887 | 335259
Track 1
Filename D:\EACRips\Jacob Karlzon - Big5 (2003) [PCD 069] FLAC\01 - Ups and downs.wav
Pre-gap length 0:00:02.00
Peak level 98.9 % Extraction speed 0.6 X Track quality 99.9 % Test CRC 117890D3 Copy CRC 117890D3 Accurately ripped (confidence 2) [187312E4] (AR v2) Copy OK
Track 2
Filename D:\EACRips\Jacob Karlzon - Big5 (2003) [PCD 069] FLAC\02 - Questions.wav
Pre-gap length 0:00:02.48
Peak level 99.0 % Extraction speed 0.6 X Track quality 100.0 % Test CRC FBE69B7E Copy CRC FBE69B7E Accurately ripped (confidence 2) [BFAB110B] (AR v2) Copy OK
Track 3
Filename D:\EACRips\Jacob Karlzon - Big5 (2003) [PCD 069] FLAC\03 - Cesterbal.wav
Pre-gap length 0:00:02.66
Peak level 96.7 % Extraction speed 0.5 X Track quality 100.0 % Test CRC 2E504E92 Copy CRC 2E504E92 Accurately ripped (confidence 2) [BF0EAE2A] (AR v2) Copy OK
Track 4
Filename D:\EACRips\Jacob Karlzon - Big5 (2003) [PCD 069] FLAC\04 - Dark place.wav
Pre-gap length 0:00:03.06
Peak level 98.9 % Extraction speed 0.5 X Track quality 100.0 % Test CRC 51CF920C Copy CRC 51CF920C Accurately ripped (confidence 2) [3293FA34] (AR v2) Copy OK
Track 5
Filename D:\EACRips\Jacob Karlzon - Big5 (2003) [PCD 069] FLAC\05 - For our dearest.wav
Pre-gap length 0:00:02.93
Peak level 85.7 % Extraction speed 0.5 X Track quality 100.0 % Test CRC 1496AC79 Copy CRC 1496AC79 Accurately ripped (confidence 2) [A849F3D0] (AR v2) Copy OK
Track 6
Filename D:\EACRips\Jacob Karlzon - Big5 (2003) [PCD 069] FLAC\06 - Hillbillies.wav
Pre-gap length 0:00:00.46
Peak level 99.0 % Extraction speed 0.5 X Track quality 100.0 % Test CRC B027469C Copy CRC B027469C Accurately ripped (confidence 2) [72810820] (AR v2) Copy OK
Track 7
Filename D:\EACRips\Jacob Karlzon - Big5 (2003) [PCD 069] FLAC\07 - Didn't see it coming.wav
Pre-gap length 0:00:02.18
Peak level 99.0 % Extraction speed 0.5 X Track quality 100.0 % Test CRC 2FF8B20A Copy CRC 2FF8B20A Accurately ripped (confidence 2) [70797F15] (AR v2) Copy OK
Track 8
Filename D:\EACRips\Jacob Karlzon - Big5 (2003) [PCD 069] FLAC\08 - Kongo.wav
Pre-gap length 0:00:02.01
Peak level 98.9 % Extraction speed 0.4 X Track quality 99.9 % Test CRC F629951F Copy CRC F629951F Accurately ripped (confidence 2) [42CFFC7D] (AR v2) Copy OK
Track 9
Filename D:\EACRips\Jacob Karlzon - Big5 (2003) [PCD 069] FLAC\09 - So close.wav
Pre-gap length 0:00:03.14
Peak level 98.9 % Extraction speed 0.5 X Track quality 100.0 % Test CRC 25483F32 Copy CRC 25483F32 Accurately ripped (confidence 2) [FF356563] (AR v2) Copy OK
All tracks accurately ripped
No errors occurred
End of status report
---- CUETools DB Plugin V2.1.6
[CTDB TOCID: dad9xiKEbPwdSyZ31aruxRcFrNs-] foundSubmit result: dad9xiKEbPwdSyZ31aruxRcFrNs- has been confirmedTrack | CTDB Status 1 | (7/7) Accurately ripped 2 | (7/7) Accurately ripped 3 | (7/7) Accurately ripped 4 | (7/7) Accurately ripped 5 | (7/7) Accurately ripped 6 | (7/7) Accurately ripped 7 | (7/7) Accurately ripped 8 | (7/7) Accurately ripped 9 | (7/7) Accurately ripped
==== Log checksum 6B9AD8973D9CDB8FBFE0A4ED84981C0F685E232D9F5361EB3922EFAFF518D5F4 ====

Содержание индексной карты (.CUE)

REM GENRE JazzREM DATE 2003REM DISCID 5C117609REM COMMENT "ExactAudioCopy v1.3"PERFORMER "Jacob Karlzon"TITLE "Big 5"FILE "01 - Ups and Downs.wav" WAVE  TRACK 01 AUDIO    TITLE "Ups and Downs"    PERFORMER "Jacob Karlzon"    INDEX 01 00:00:00  TRACK 02 AUDIO    TITLE "Questions"    PERFORMER "Jacob Karlzon"    INDEX 00 06:35:42FILE "02 - Questions.wav" WAVE    INDEX 01 00:00:00  TRACK 03 AUDIO    TITLE "Cesterbal"    PERFORMER "Jacob Karlzon"    INDEX 00 09:36:14FILE "03 - Cesterbal.wav" WAVE    INDEX 01 00:00:00  TRACK 04 AUDIO    TITLE "Dark Place"    PERFORMER "Jacob Karlzon"    INDEX 00 06:58:58FILE "04 - Dark Place.wav" WAVE    INDEX 01 00:00:00  TRACK 05 AUDIO    TITLE "For Our Dearest"    PERFORMER "Jacob Karlzon"    INDEX 00 05:39:64FILE "05 - For Our Dearest.wav" WAVE    INDEX 01 00:00:00  TRACK 06 AUDIO    TITLE "Hillbillies"    PERFORMER "Jacob Karlzon"    INDEX 00 04:30:44FILE "06 - Hillbillies.wav" WAVE    INDEX 01 00:00:00  TRACK 07 AUDIO    TITLE "Didn't See It Coming"    PERFORMER "Jacob Karlzon"    INDEX 00 08:36:61FILE "07 - Didn't See It Coming.wav" WAVE    INDEX 01 00:00:00  TRACK 08 AUDIO    TITLE "Kongo"    PERFORMER "Jacob Karlzon"    INDEX 00 08:02:19FILE "08 - Kongo.wav" WAVE    INDEX 01 00:00:00  TRACK 09 AUDIO    TITLE "So Close"    PERFORMER "Jacob Karlzon"    INDEX 00 06:59:38FILE "09 - So Close.wav" WAVE    INDEX 01 00:00:00

Отчет CUETools

[CUETools log; Date: 01.09.2018 13:19:04; Version: 2.1.5][CTDB TOCID: dad9xiKEbPwdSyZ31aruxRcFrNs-] found.Track | CTDB Status  1   | (8/8) Accurately ripped  2   | (8/8) Accurately ripped  3   | (8/8) Accurately ripped  4   | (8/8) Accurately ripped  5   | (8/8) Accurately ripped  6   | (8/8) Accurately ripped  7   | (8/8) Accurately ripped  8   | (8/8) Accurately ripped  9   | (8/8) Accurately ripped[AccurateRip ID: 0016dea1-00a8ea43-5c117609] found.Track   [  CRC   |   V2   ] Status 01     [42939e0d|187312e4] (0+2/2) Accurately ripped 02     [01922d1b|bfab110b] (0+2/2) Accurately ripped 03     [b9ba2d7e|bf0eae2a] (0+2/2) Accurately ripped 04     [92e71db2|3293fa34] (0+2/2) Accurately ripped 05     [15678562|a849f3d0] (0+2/2) Accurately ripped 06     [7afc3177|72810820] (0+2/2) Accurately ripped 07     [834f8aae|70797f15] (0+2/2) Accurately ripped 08     [675734c1|42cffc7d] (0+2/2) Accurately ripped 09     [accead6b|ff356563] (0+2/2) Accurately ripped
Track Peak [ CRC32 ] [W/O NULL] [ LOG ] -- 99,0 [BC41F86A] [FBC666C1] 01 98,9 [117890D3] [83C140AE] CRC32 02 99,0 [FBE69B7E] [62D4C962] CRC32 03 96,7 [2E504E92] [AD9560A4] CRC32 04 98,9 [51CF920C] [3D87A0DC] CRC32 05 85,7 [1496AC79] [EF9B0822] CRC32 06 99,0 [B027469C] [042B6D82] CRC32 07 99,0 [2FF8B20A] [4D3D1A50] CRC32 08 98,9 [F629951F] [76EBEA4C] CRC32 09 98,9 [25483F32] [1751AC26] CRC32

If you like the topic, please click share to help develop our site.

To download the file disable ad blocking, and reload the page.

disable adblock How to disable ad blocking?

Download by magnet link 433 MB Download Torrent

Login using:

Similar topics



   
Current time is: 26-Apr 14:53 :: All times are UTC + 3