Тыквоголовый
| Pumpkinhead |

Информация о фильме
Название: Тыквоголовый
Оригинальное название: Pumpkinhead
Год выхода: 1988
Жанр: ужасы, мистика
Режиссер: Стэн Уинстон
В ролях: Лэнс Хенриксен, Джефф Ист, Джон Д’Акино, Кимберли Росс, Джоэль Хоффман, Синтия Бэйн, Керри Ремсен, Брайан Бремер, Джордж «Бак» Флауэр, Мэттью Херли, Ли Де Бру, Пегги Уолтон-Уокер, Дик Уорлок, Девон Одесса, Джозеф Пиро, Майем Биалик, Грег Майклс, Мадлен Тейлор Холмс
О фильме:
С давних пор у жителей одного из далёких от бурной жизни селений существует жуткая и редко использующаяся возможность: если человек тяжко обижен и не может сам отомстить обидчику, он может прийти в угрюмую хижину вечной колдуньи и уговорить её оживить демона адской мести. Тогда у него появляется безжалостный мститель, который не остановится убивать до смерти последнего из обидчиков. И вот один из жителей приходит за такой помощью – его сына сбили проезжавшие мимо подростки и скрылись от ответственности. Колдунья оживляет демона, но коварство мистического способа таково, что пожелавший мести сам испытывает невероятные душевные и физические муки. Не вынеся подобного, он пытается убить демона, а это можно сделать, только убив себя…

Страна: США
Студия: Lion Films
Продолжительность: 01:26:32
Перевод: Профессиональный многоголосый, авторский, любительский одноголосый
Файл
Кодек: h.264
Качество: BDRip 1080p
Видео: 15.2 Мбит/с, 1920x1038, 23.976 кадр/c
Звук:
• №1: Русский (АС3, 2 ch, 192 Кбит/с) Профессиональный многоголосый
• №2: Русский (DTS, 6 ch, 1509 Кбит/с) Авторский одноголосый [Юрий Живов]
• №3: Русский (DTS, 6 ch, 1509 Кбит/с) Авторский одноголосый [Василий Горчаков]
• №4: Русский (АС3, 2 ch, 192 Кбит/с) Любительский одноголосый [Максим Логинофф]
• №5: Английский (DTS, 6 ch, 1509 Кбит/с)
Субтитры: Английские [SDH]

MediaInfo

---------------------------------------------------------------------------------------------------------------
x264 [info]: frame I:627 Avg QP:17.45 size:197247
x264 [info]: frame P:25454 Avg QP:18.76 size:112975
x264 [info]: frame B:98408 Avg QP:21.13 size: 69993
x264 [info]: consecutive B-frames: 2.4% 2.1% 6.4% 6.0% 9.9% 64.9% 4.3% 1.1% 1.9% 1.1%
---------------------------------------------------------------------------------------------------------------
Полное имя : Pumpkinhead.1988.x264.BDRip.1080p.0ptimus.mkv
Формат : Matroska
Версия формата : Version 2
Размер файла : 12,2 Гбайт
Продолжительность : 1 ч. 26 м.
Общий поток : 20,1 Мбит/сек
Название фильма : Тыквоголовый | Pumpkinhead [1988] -= BDRip (1080p) by 0ptimus=-
Дата кодирования : UTC 2014-10-04 04:20:19
Программа кодирования : mkvmerge v6.6.0 ('The Edge Of The In Between') built on Dec 1 2013 17:55:00
Библиотека кодирования : libebml v1.3.0 + libmatroska v1.4.1
Видео
Идентификатор : 1
Формат : AVC
Формат/Информация : Advanced Video Codec
Профиль формата : [email protected]
Параметр CABAC формата : Да
Параметр ReFrames формата : 4 кадра
Идентификатор кодека : V_MPEG4/ISO/AVC
Продолжительность : 1 ч. 26 м.
Битрейт : 15,2 Мбит/сек
Ширина : 1920 пикселей
Высота : 1038 пикселей
Соотношение сторон : 1,85:1
Режим частоты кадров : Постоянный
Частота кадров : 23,976 кадра/сек
Цветовое пространство : YUV
Субдискретизация насыщенности : 4:2:0
Битовая глубина : 8 бит
Тип развёртки : Прогрессивная
Бит/(Пиксели*Кадры) : 0.319
Размер потока : 8,97 Гбайт (74%)
Заголовок : Rip by 0ptimus
Библиотека кодирования : x264 core 133 r2334 a3ac64b
Настройки программы : cabac=1 / ref=4 / deblock=1:-2:-1 / analyse=0x3:0x113 / me=umh / subme=10 / psy=1 / psy_rd=1.00:0.20 / mixed_ref=1 / me_range=32 / chroma_me=1 / trellis=2 / 8x8dct=1 / cqm=0 / deadzone=21,11 / fast_pskip=0 / chroma_qp_offset=-3 / threads=3 / lookahead_threads=1 / sliced_threads=0 / nr=0 / decimate=0 / interlaced=0 / bluray_compat=0 / constrained_intra=0 / bframes=9 / b_pyramid=2 / b_adapt=2 / b_bias=0 / direct=3 / weightb=1 / open_gop=0 / weightp=2 / keyint=240 / keyint_min=23 / scenecut=40 / intra_refresh=0 / rc_lookahead=40 / rc=2pass / mbtree=0 / bitrate=15240 / ratetol=1.0 / qcomp=0.60 / qpmin=0 / qpmax=69 / qpstep=4 / cplxblur=20.0 / qblur=0.5 / vbv_maxrate=50000 / vbv_bufsize=62500 / nal_hrd=none / ip_ratio=1.40 / pb_ratio=1.30 / aq=1:1.00
Язык : English
Default : Да
Forced : Да
Аудио #1
Идентификатор : 2
Формат : AC-3
Формат/Информация : Audio Coding 3
Расширение режима : CM (complete main)
Параметр Endianness формата : Big
Идентификатор кодека : A_AC3
Продолжительность : 1 ч. 26 м.
Вид битрейта : Постоянный
Битрейт : 192 Кбит/сек
Каналы : 2 канала
Расположение каналов : Front: L R
Частота : 48,0 КГц
Битовая глубина : 16 бит
Метод сжатия : С потерями
Размер потока : 119 Мбайт (1%)
Заголовок : Многоголосый AC3 2.0 @ 192 kbps
Язык : Russian
Default : Да
Forced : Да
Аудио #2
Идентификатор : 3
Формат : DTS
Формат/Информация : Digital Theater Systems
Режим : 16
Параметр Endianness формата : Big
Идентификатор кодека : A_DTS
Продолжительность : 1 ч. 26 м.
Вид битрейта : Постоянный
Битрейт : 1509 Кбит/сек
Каналы : 6 каналов
Расположение каналов : Front: L C R, Side: L R, LFE
Частота : 48,0 КГц
Битовая глубина : 24 бит
Метод сжатия : С потерями
Размер потока : 934 Мбайт (7%)
Заголовок : Авторский [Юрий Живов] DTS 5.1 @ 1509 kbps
Язык : Russian
Default : Нет
Forced : Нет
Аудио #3
Идентификатор : 4
Формат : DTS
Формат/Информация : Digital Theater Systems
Режим : 16
Параметр Endianness формата : Big
Идентификатор кодека : A_DTS
Продолжительность : 1 ч. 26 м.
Вид битрейта : Постоянный
Битрейт : 1509 Кбит/сек
Каналы : 6 каналов
Расположение каналов : Front: L C R, Side: L R, LFE
Частота : 48,0 КГц
Битовая глубина : 24 бит
Метод сжатия : С потерями
Размер потока : 934 Мбайт (7%)
Заголовок : Авторский [Василий Горчаков] DTS 5.1 @ 1509 kbps
Язык : Russian
Default : Нет
Forced : Нет
Аудио #4
Идентификатор : 5
Формат : AC-3
Формат/Информация : Audio Coding 3
Расширение режима : CM (complete main)
Параметр Endianness формата : Big
Идентификатор кодека : A_AC3
Продолжительность : 1 ч. 26 м.
Вид битрейта : Постоянный
Битрейт : 192 Кбит/сек
Каналы : 2 канала
Расположение каналов : Front: L R
Частота : 48,0 КГц
Битовая глубина : 16 бит
Метод сжатия : С потерями
Размер потока : 119 Мбайт (1%)
Заголовок : Любительский [Максим Логинофф] AC3 2.0 @ 192 kbps
Язык : Russian
Default : Нет
Forced : Нет
Аудио #5
Идентификатор : 6
Формат : DTS
Формат/Информация : Digital Theater Systems
Режим : 16
Параметр Endianness формата : Big
Идентификатор кодека : A_DTS
Продолжительность : 1 ч. 26 м.
Вид битрейта : Постоянный
Битрейт : 1509 Кбит/сек
Каналы : 6 каналов
Расположение каналов : Front: L C R, Side: L R, LFE
Частота : 48,0 КГц
Битовая глубина : 24 бит
Метод сжатия : С потерями
Размер потока : 934 Мбайт (7%)
Заголовок : DTS 5.1 @ 1509 kbps
Язык : English
Default : Нет
Forced : Нет
Текст
Идентификатор : 7
Формат : UTF-8
Идентификатор кодека : S_TEXT/UTF8
Идентификатор кодека/Информация : UTF-8 Plain Text
Заголовок : SDH
Язык : English
Default : Нет
Forced : Нет
Меню
00:00:00.000 : en:Chapter 1
00:08:12.909 : en:Chapter 2
00:15:05.905 : en:Chapter 3
00:24:54.493 : en:Chapter 4
00:29:25.221 : en:Chapter 5
00:38:10.413 : en:Chapter 6
00:47:17.835 : en:Chapter 8
00:52:53.211 : en:Chapter 9
00:58:25.251 : en:Chapter 10
01:02:42.592 : en:Chapter 11
01:10:39.235 : en:Chapter 12
01:17:59.675 : en:Chapter 13

Скриншоты



Релиз от:

If you like the topic, please click share to help develop our site.

To download the file disable ad blocking, and reload the page.

disable adblock How to disable ad blocking?

Download by magnet link 12.18 GB Download Torrent

Login using:

Similar topics



   
Current time is: 26-Apr 14:40 :: All times are UTC + 3