Информация о фильме
Название: Добро пожаловать домой, Рокси Кармайкл
Оригинальное название: Welcome Home, Roxy Carmichael
Год выхода: 1990
Жанр: Мелодрама, комедия, драма
Режиссер: Джим Абрахамс
В ролях: Вайнона Райдер, Джефф Дэниелс, Лайла Робинс, Дина Манофф, Томас Уилсон Браун, Джоан МакМёртри, Грэм Беккел, Фрэнсис Фишер, Робби Кайджер, Сачи Паркер
О фильме:
Пятнадцать лет прошло с тех пор, как Рокси Кармайкл уехала из Клайда, штат Огайо, в поисках славы и богатства. Теперь город с волнением готовится к ее возвращению. Среди тех, кто с нетерпением ждет ее, любящий парень, усыновивший ее ребенка, соперница и Динки Боссетти — одаренная эксцентричная пятнадцатилетняя девушка, которая чувствует, что она как-то связана с прошлым Рокси.

Страна: США, Великобритания
Студия: Incorporated Television Company (ITC)
Продолжительность: 01:35:56
Перевод: Профессиональный многоголосый
Файл
Кодек: x264
Качество: WEB-DL 1080p
Видео: MPEG-4 AVC, 12.5 Mбит/с, 1920x1080
Звук №1: Русский | AC3, 6 ch, 384 Кбит/с | Профессиональный многоголосый
Звук №2: Английский | EAC3, 2 ch, 224 Кбит/с | Оригинал
Субтитры: Английские

Скриншоты

Инфо-файл

Формат : Matroska
Версия формата : Version 2
Размер файла : 8,94 Гбайт
Продолжительность : 1 ч. 35 м.
Общий поток : 13,3 Мбит/сек
Название фильма : Welcome.Home.Roxy.Carmichael.1990.1080p.AMZN.WEB-DL.by.zzZGVvv
Дата кодирования : UTC 2018-09-01 20:04:54
Программа кодирования : mkvmerge v5.8.0 ('No Sleep / Pillow') built on Sep 2 2012 15:37:04
Библиотека кодирования : libebml v1.2.3 + libmatroska v1.3.0
Attachements : cover.jpg
Видео
Идентификатор : 1
Формат : AVC
Формат/Информация : Advanced Video Codec
Профиль формата : [email protected]
Параметр CABAC формата : Да
Параметр ReFrames формата : 4 кадра
Идентификатор кодека : V_MPEG4/ISO/AVC
Продолжительность : 1 ч. 35 м.
Битрейт : 12,5 Мбит/сек
Ширина : 1920 пикселей
Высота : 1080 пикселей
Соотношение сторон : 16:9
Режим частоты кадров : Постоянный
Частота кадров : 24,000 кадра/сек
Цветовое пространство : YUV
Субдискретизация насыщенности : 4:2:0
Битовая глубина : 8 бит
Тип развёртки : Прогрессивная
Бит/(Пиксели*Кадры) : 0.251
Размер потока : 8,36 Гбайт (93%)
Язык : English
Default : Да
Forced : Нет
Цветовой диапазон : Limited
Основные цвета : BT.709
Характеристики трансфера : BT.709
Коэффициенты матрицы : BT.709
Аудио #1
Идентификатор : 2
Формат : AC-3
Формат/Информация : Audio Coding 3
Расширение режима : CM (complete main)
Параметр Endianness формата : Big
Идентификатор кодека : A_AC3
Продолжительность : 1 ч. 35 м.
Вид битрейта : Постоянный
Битрейт : 384 Кбит/сек
Каналы : 6 каналов
Расположение каналов : Front: L C R, Side: L R, LFE
Частота : 48,0 КГц
Метод сжатия : С потерями
Размер потока : 264 Мбайт (3%)
Язык : Russian
Default : Да
Forced : Нет
Аудио #2
Идентификатор : 3
Формат : E-AC-3
Формат/Информация : Audio Coding 3
Параметр Endianness формата : Big
Идентификатор кодека : A_EAC3
Продолжительность : 1 ч. 35 м.
Вид битрейта : Постоянный
Битрейт : 224 Кбит/сек
Каналы : 2 канала
Расположение каналов : Front: L R
Частота : 48,0 КГц
Метод сжатия : С потерями
Размер потока : 154 Мбайт (2%)
Язык : English
Default : Нет
Forced : Нет
Текст #1
Идентификатор : 4
Формат : UTF-8
Идентификатор кодека : S_TEXT/UTF8
Идентификатор кодека/Информация : UTF-8 Plain Text
Язык : English
Default : Нет
Forced : Нет
Текст #2
Идентификатор : 5
Формат : UTF-8
Идентификатор кодека : S_TEXT/UTF8
Идентификатор кодека/Информация : UTF-8 Plain Text
Заголовок : SDH
Язык : English
Default : Нет
Forced : Нет

If you like the topic, please click share to help develop our site.

To download the file disable ad blocking, and reload the page.

disable adblock How to disable ad blocking?

Download by magnet link 8.94 GB Download Torrent

Login using:

Similar topics

Несносные леди / Mother's Day (2016) WEB-DLRip | iTunes
 1.36 GB   39 | 0   09-Jul-16 21:06   85
Путь страсти / Passion Lane (2001) DVDRip | P2
 1.45 GB   0 | 1   14-Apr-17 15:20   42
К-911: Собачья работа 2 / K-911 (1999) BDRip 720p | P, P2, A
 4.91 GB   3 | 0   30-Apr-17 22:30   12


   
Current time is: 21-Jul 15:57 :: All times are UTC + 3