Встреча одноклассников - 2. Мальчишник / Luokkakokous 2. Polttarit / Reunion 2: The Bachelor Party
Страна: Финляндия
Жанр: комедия
Год выпуска: 2016
Продолжительность: 01:22:53
Перевод: субтитры - porcellus
Субтитры: русские
Оригинальная аудиодорожка: финская
Режиссер: Танели Мустонен / Taneli Mustonen
В ролях: Сами Хедберг, Аку Хирвиниеми, Яайо Линнонмаа, Хелена Вьерикко, Нийна Лахтинен, Анникки Хирвиниеми, Калле Лэмберг, Мануэла Боско, Ану Синисало, Ева Литманен
Описание: Туомас, Никлас и Антти собрались снова - на этот раз для празднования свадьбы Туомаса и Лейлы. Антти устраивает по этому поводу мальчишник. Однако, внезапная смерть во время вечеринки другого приятеля - Хенрика, вносит в планы друзей коррективы. Теперь они должны отправиться в поездку на похороны Хенрика. Как всегда, не обошлось без бурных приключений. Успеют ли друзья вернуться до начала свадебной церемонии? Смогут ли они сохранить прочность своей дружбы, разобраться в своих личных проблемах? Им многое предстоит испытать и понять.
Рейтинг IMDb - 4,6
Финский ремейк второй части датской франшизы Встреча выпускников 2: Похороны
Первая часть финского ремейка
Особым ценителям для сравнения эстонский ремейк второй части
Сэмпл: http://multi-up.com/1207631
Качество видео: HDRip
Формат видео: AVI
Видео: 720x304 (2.37:1), 23.976 fps, XviD build 50 ~2323 kbps avg, 0.44 bit/pixel
Аудио: 48 kHz, AC3 Dolby Digital, 2/0 (L,R) ch, ~192 kbps
Формат субтитров: softsub (SRT)

MediaInfo

GeneralComplete name                            : H:\temp\Luokkakokous 2\Luokkakokous.2.Polttarit.aviFormat                                   : AVIFormat/Info                              : Audio Video InterleaveFile size                                : 1.46 GiBDuration                                 : 1 h 22 minOverall bit rate                         : 2 525 kb/sWriting application                      : VirtualDubMod 1.5.10.3 | www.virtualdub-fr.org || (build 2550/release)Writing library                          : VirtualDubMod build 2550/release
VideoID : 0Format : MPEG-4 VisualFormat profile : Advanced [email protected] settings, BVOP : 1Format settings, QPel : NoFormat settings, GMC : No warppointsFormat settings, Matrix : Default (MPEG)Codec ID : XVIDCodec ID/Hint : XviDDuration : 1 h 22 minBit rate : 2 324 kb/sWidth : 720 pixelsHeight : 304 pixelsDisplay aspect ratio : 2.35:1Frame rate : 23.976 (24000/1001) FPSColor space : YUVChroma subsampling : 4:2:0Bit depth : 8 bitsScan type : ProgressiveCompression mode : LossyBits/(Pixel*Frame) : 0.443Stream size : 1.35 GiB (92%)Writing library : XviD 1.2.1 (UTC 2008-12-04)
AudioID : 1Format : AC-3Format/Info : Audio Coding 3Mode extension : CM (complete main)Format settings, Endianness : BigCodec ID : 2000Duration : 1 h 22 minBit rate mode : ConstantBit rate : 192 kb/sChannel(s) : 2 channelsChannel positions : Front: L RSampling rate : 48.0 kHzFrame rate : 31.250 FPS (1536 spf)Bit depth : 16 bitsCompression mode : LossyStream size : 114 MiB (8%)Alignment : Split accross interleavesInterleave, duration : 42 ms (1.00 video frame)Interleave, preload duration : 500 ms

Скриншот c названием фильма

Скриншоты

Фрагмент субтитров

5
00:00:45,880 --> 00:00:49,175
Мама! Он опять это делает!
Как же меня бесит!
6
00:00:49,258 --> 00:00:53,179
Никлас, мы разве не договорились про фотки?
7
00:00:53,262 --> 00:00:58,267
Дети печатают их в школе, и дразнят Сару. Разве непонятно?
8
00:00:58,350 --> 00:01:01,812
Я иду в ногу со временем.
У меня шесть новых подписчиков.
9
00:01:01,896 --> 00:01:05,649
- А у тебя сколько?
- Ты даже спортом не занимаешься.
10
00:01:15,826 --> 00:01:19,872
- Эй... Что же там такого хорошего?
- Где?
11
00:01:19,955 --> 00:01:23,584
- В моем альбоме!
- Твоем альбоме?
12
00:01:24,668 --> 00:01:28,255
- Все.
- Ну ладно.
13
00:01:45,773 --> 00:01:48,526
Ниппе! Как дела?
14
00:01:48,609 --> 00:01:53,114
У меня хорошо. Немного занят.
Много всяких дел.
15
00:01:53,197 --> 00:01:56,700
На пробежку? Хорошо, почему бы и нет.
16
00:02:19,348 --> 00:02:23,394
- Походу знакомый парень?
- Поздравляю с новым альбомом.
17
00:02:23,477 --> 00:02:27,857
- Молодец, Туомас.
- Ты носишь кальсоны?
18
00:02:43,998 --> 00:02:47,543
ВСТРЕЧА ОДНОКЛАССНИКОВ - 2
МАЛЬЧИШНИК
19
00:02:52,506 --> 00:02:55,509
- Эй! Не отставай!
- Ты посмотри на него.
20
00:02:55,593 --> 00:02:59,638
Наш Туомас женится.
Кто бы мог подумать?
21
00:02:59,722 --> 00:03:05,186
- Придет и твой черед, Антти.
- Да. Конечно.
22
00:03:05,269 --> 00:03:07,897
- На самом деле, я не жду у моря погоды.
- Правда?
23
00:03:07,980 --> 00:03:14,111
Быстрые свидания.
40 женщин за один раз.
24
00:03:14,236 --> 00:03:18,866
Эй... Я еще три года назад предлагал.
25
00:03:18,949 --> 00:03:23,412
Пацаны! Скоро будут первые отзывы.
26
00:03:24,538 --> 00:03:29,376
Угадай, кто придет на мальчишник Туомаса? Перец.

If you like the topic, please click share to help develop our site.

To download the file disable ad blocking, and reload the page.

disable adblock How to disable ad blocking?

Download by magnet link 1.46 GB Download Torrent

Login using:

Similar topics

Место встречи / The Place (2017) BDRip 720p | Лицензия
 5.97 GB   69 | 10   17-Apr-19 04:30   0
Место встречи / The Place (2017) BDRip 1080p | Лицензия
 8.8 GB   116 | 3   17-Apr-19 04:30   0


   
Current time is: 23-Apr 21:13 :: All times are UTC + 3