Vincent Peirani ‎ / Gunung Sebatu
Жанр: Modern Jazz
Носитель: CD
Страна-производитель диска (релиза): France
Год издания: 2010
Издатель (лейбл): Zig Zag Territoires
Номер по каталогу: ZZT100201
Аудиокодек: FLAC (*.flac)
Тип рипа: tracks+.cue
Битрейт аудио: lossless
Продолжительность: 00:52:56
Источник (релизер): локальная сеть
Наличие сканов в содержимом раздачи: да
Треклист:
1 Truc Muche 3:49
2 Untitled Suite 7:19
3 Ballade En Ré Bémol 3:49
4 Anataule Ondulée 2:59
5 Les Yeux Du Jour 5:04
6 Gunung Sebatu 5:07
7 Every Little Thing She Does Is Magic 3:54
8 Miniature 4:22
9 56 33 3:49
10 My Little Girl 5:47
11 Still Song 6:36

Лог создания рипа

Exact Audio Copy V0.99 prebeta 5 from 4. May 2009
EAC extraction logfile from 22. September 2010, 9:48
Vincent Peirani / Gunung Sebatu
Used drive : PLEXTOR DVDR PX-860A Adapter: 0 ID: 0
Read mode : SecureUtilize accurate stream : YesDefeat audio cache : YesMake use of C2 pointers : No
Read offset correction : 96Overread into Lead-In and Lead-Out : NoFill up missing offset samples with silence : YesDelete leading and trailing silent blocks : NoNull samples used in CRC calculations : YesUsed interface : Native Win32 interface for Win NT & 2000Gap handling : Appended to previous track
Used output format : User Defined EncoderSelected bitrate : 768 kBit/sQuality : HighAdd ID3 tag : NoCommand line compressor : C:\Program Files\FLAC\flac.exeAdditional command line options : -8 -V -T "ARTIST=%a" -T "TITLE=%t" -T "ALBUM=%g" -T "DATE=%y" -T "TRACKNUMBER=%n" -T "TOTALTRACKS=%x" -T "GENRE=%m" -T "ALBUM ARTIST=%v" -T "ALBUMARTIST=%v" -T "COMMENT=EAC V0.99 prebeta 5, Secure Mode, Test & Copy, Accurat
TOC of the extracted CD
Track | Start | Length | Start sector | End sector --------------------------------------------------------- 1 | 0:00.00 | 3:50.28 | 0 | 17277 2 | 3:50.28 | 7:20.59 | 17278 | 50336 3 | 11:11.12 | 3:49.63 | 50337 | 67574 4 | 15:01.00 | 3:01.51 | 67575 | 81200 5 | 18:02.51 | 5:06.56 | 81201 | 104206 6 | 23:09.32 | 5:08.39 | 104207 | 127345 7 | 28:17.71 | 3:55.02 | 127346 | 144972 8 | 32:12.73 | 4:23.41 | 144973 | 164738 9 | 36:36.39 | 3:51.04 | 164739 | 182067 10 | 40:27.43 | 5:50.60 | 182068 | 208377 11 | 46:18.28 | 6:38.30 | 208378 | 238257
Track 1
Filename M:\DL\Vincent Peirani - Gunung Sebatu (2009) [FLAC]\01 - Truc'Muche'.wav
Pre-gap length 0:00:02.00
Peak level 100.0 % Track quality 100.0 % Test CRC F025F7DA Copy CRC F025F7DA Track not present in AccurateRip database Copy OK
Track 2
Filename M:\DL\Vincent Peirani - Gunung Sebatu (2009) [FLAC]\02 - Untitled Suite.wav
Pre-gap length 0:00:00.73
Peak level 100.0 % Track quality 100.0 % Test CRC 89395C77 Copy CRC 89395C77 Track not present in AccurateRip database Copy OK
Track 3
Filename M:\DL\Vincent Peirani - Gunung Sebatu (2009) [FLAC]\03 - Ballade en re bemol.wav
Pre-gap length 0:00:01.77
Peak level 100.0 % Track quality 100.0 % Test CRC 500728D0 Copy CRC 500728D0 Track not present in AccurateRip database Copy OK
Track 4
Filename M:\DL\Vincent Peirani - Gunung Sebatu (2009) [FLAC]\04 - Anataule Ondulee.wav
Pre-gap length 0:00:00.73
Peak level 100.0 % Track quality 100.0 % Test CRC EFCFEFC1 Copy CRC EFCFEFC1 Track not present in AccurateRip database Copy OK
Track 5
Filename M:\DL\Vincent Peirani - Gunung Sebatu (2009) [FLAC]\05 - Les Yeux du jour.wav
Pre-gap length 0:00:01.77
Peak level 100.0 % Track quality 100.0 % Test CRC 70489C1C Copy CRC 70489C1C Track not present in AccurateRip database Copy OK
Track 6
Filename M:\DL\Vincent Peirani - Gunung Sebatu (2009) [FLAC]\06 - Gunung Sebatu.wav
Pre-gap length 0:00:01.77
Peak level 100.0 % Track quality 100.0 % Test CRC 2DF296ED Copy CRC 2DF296ED Track not present in AccurateRip database Copy OK
Track 7
Filename M:\DL\Vincent Peirani - Gunung Sebatu (2009) [FLAC]\07 - Every little thing she does is magic.wav
Pre-gap length 0:00:00.97
Peak level 100.0 % Track quality 100.0 % Test CRC DA485F73 Copy CRC DA485F73 Track not present in AccurateRip database Copy OK
Track 8
Filename M:\DL\Vincent Peirani - Gunung Sebatu (2009) [FLAC]\08 - Miniature.wav
Pre-gap length 0:00:00.49
Peak level 92.5 % Track quality 100.0 % Test CRC C34940FB Copy CRC C34940FB Track not present in AccurateRip database Copy OK
Track 9
Filename M:\DL\Vincent Peirani - Gunung Sebatu (2009) [FLAC]\09 - 56 33.wav
Pre-gap length 0:00:01.45
Peak level 100.0 % Track quality 100.0 % Test CRC A379CCA5 Copy CRC A379CCA5 Track not present in AccurateRip database Copy OK
Track 10
Filename M:\DL\Vincent Peirani - Gunung Sebatu (2009) [FLAC]\10 - My Little Girl.wav
Pre-gap length 0:00:01.77
Peak level 100.0 % Track quality 100.0 % Test CRC A8156D26 Copy CRC A8156D26 Track not present in AccurateRip database Copy OK
Track 11
Filename M:\DL\Vincent Peirani - Gunung Sebatu (2009) [FLAC]\11 - Still Song.wav
Pre-gap length 0:00:02.81
Peak level 100.0 % Track quality 100.0 % Test CRC 9A6A40E7 Copy CRC 9A6A40E7 Track not present in AccurateRip database Copy OK
None of the tracks are present in the AccurateRip database
No errors occurred
End of status report

Содержание индексной карты (.CUE)

REM GENRE JazzREM DATE 2009REM DISCID A00C680BREM COMMENT "ExactAudioCopy v0.99pb5"PERFORMER "Vincent Peirani"TITLE "Gunung Sebatu"FILE "01 - Truc'Muche'.flac" WAVE  TRACK 01 AUDIO    TITLE "Truc'Muche'"    PERFORMER "Vincent Peirani"    INDEX 01 00:00:00  TRACK 02 AUDIO    TITLE "Untitled Suite"    PERFORMER "Vincent Peirani"    INDEX 00 03:49:48FILE "02 - Untitled Suite.flac" WAVE    INDEX 01 00:00:00  TRACK 03 AUDIO    TITLE "Ballade en re bemol"    PERFORMER "Vincent Peirani"    INDEX 00 07:19:01FILE "03 - Ballade en re bemol.flac" WAVE    INDEX 01 00:00:00  TRACK 04 AUDIO    TITLE "Anataule Ondulee"    PERFORMER "Vincent Peirani"    INDEX 00 03:49:08FILE "04 - Anataule Ondulee.flac" WAVE    INDEX 01 00:00:00  TRACK 05 AUDIO    TITLE "Les Yeux du jour"    PERFORMER "Vincent Peirani"    INDEX 00 02:59:68FILE "05 - Les Yeux du jour.flac" WAVE    INDEX 01 00:00:00  TRACK 06 AUDIO    TITLE "Gunung Sebatu"    PERFORMER "Vincent Peirani"    INDEX 00 05:04:73FILE "06 - Gunung Sebatu.flac" WAVE    INDEX 01 00:00:00  TRACK 07 AUDIO    TITLE "Every little thing she does is magic"    PERFORMER "Vincent Peirani"    INDEX 00 05:07:41FILE "07 - Every little thing she does is magic.flac" WAVE    INDEX 01 00:00:00  TRACK 08 AUDIO    TITLE "Miniature"    PERFORMER "Vincent Peirani"    INDEX 00 03:54:40FILE "08 - Miniature.flac" WAVE    INDEX 01 00:00:00  TRACK 09 AUDIO    TITLE "56 33"    PERFORMER "Vincent Peirani"    INDEX 00 04:22:07FILE "09 - 56 33.flac" WAVE    INDEX 01 00:00:00  TRACK 10 AUDIO    TITLE "My Little Girl"    PERFORMER "Vincent Peirani"    INDEX 00 03:49:21FILE "10 - My Little Girl.flac" WAVE    INDEX 01 00:00:00  TRACK 11 AUDIO    TITLE "Still Song"    PERFORMER "Vincent Peirani"    INDEX 00 05:47:74FILE "11 - Still Song.flac" WAVE    INDEX 01 00:00:00

Лог проверки качества

AUDIOCHECKER v2.0 beta (build 457) - by Dester - [email protected]~~~~~~~~~~~~~~~~~~~~~~~~~~~~~~~~~~-=== DO NOT EDIT THIS FILE! ===-
Path: ...\Vincent Peirani - Gunung Sebatu (2009)) [FLAC] {ZZT100201}
01 -=- 01 - Truc'Muche'.flac -=- MPEG (85%)02 -=- 02 - Untitled Suite.flac -=- CDDA (100%)03 -=- 03 - Ballade en re bemol.flac -=- CDDA (100%)04 -=- 04 - Anataule Ondulee.flac -=- CDDA (99%)05 -=- 05 - Les Yeux du jour.flac -=- CDDA (99%)06 -=- 06 - Gunung Sebatu.flac -=- CDDA (100%)07 -=- 07 - Every little thing she does is magic.flac -=- CDDA (100%)08 -=- 08 - Miniature.flac -=- CDDA (42%)09 -=- 09 - 56 33.flac -=- CDDA (100%)10 -=- 10 - My Little Girl.flac -=- CDDA (100%)11 -=- 11 - Still Song.flac -=- CDDA (100%)
Summary 86,82% CDDA
184023444

If you like the topic, please click share to help develop our site.

To download the file disable ad blocking, and reload the page.

disable adblock How to disable ad blocking?

Download by magnet link 303 MB Download Torrent

Login using:

Similar topics



   
Current time is: 26-Apr 15:00 :: All times are UTC + 3