Rodney Green Quartet ‎ / Live At Smalls
Жанр: Post Bop
Носитель: CD
Страна-производитель диска (релиза): US
Год издания: 2013
Издатель (лейбл): SmallsLIVE ‎
Номер по каталогу: SL0036
Аудиокодек: FLAC (*.flac)
Тип рипа: image+.cue
Битрейт аудио: lossless
Продолжительность: 01:04:36
Источник (релизер): локальная сеть
Наличие сканов в содержимом раздачи: нет
Треклист:
1 Percy's Delight 7:48
2 Ludus Tonalis 9:36
3 Painting In The Dark 7:11
4 Camden 7:48
5 Believer 8:39
6 The Citadel 12:32
7 Bemsha Swing 10:41

Лог создания рипа

Exact Audio Copy V1.1 from 23. June 2015
EAC extraction logfile from 23. September 2017, 15:01
Rodney Green Quartet / Live At Smalls
Used drive : PLEXTOR DVDR PX-760A Adapter: 1 ID: 1
Read mode : SecureUtilize accurate stream : YesDefeat audio cache : YesMake use of C2 pointers : No
Read offset correction : 30Overread into Lead-In and Lead-Out : NoFill up missing offset samples with silence : YesDelete leading and trailing silent blocks : NoNull samples used in CRC calculations : YesUsed interface : Native Win32 interface for Win NT & 2000
Used output format : User Defined EncoderSelected bitrate : 1024 kBit/sQuality : HighAdd ID3 tag : NoCommand line compressor : C:\Program Files (x86)\FLAC\flac.exeAdditional command line options : -5 -V -T "ARTIST=%artist%" -T "TITLE=%title%" -T "ALBUM=%albumtitle%" -T "DATE=%year%" -T "TRACKNUMBER=%tracknr%" -T "GENRE=%genre%" -T "COMMENT=[oStereo.ru]" %source%
TOC of the extracted CD
Track | Start | Length | Start sector | End sector --------------------------------------------------------- 1 | 0:00.00 | 7:48.10 | 0 | 35109 2 | 7:48.10 | 9:36.27 | 35110 | 78336 3 | 17:24.37 | 7:11.01 | 78337 | 110662 4 | 24:35.38 | 7:48.05 | 110663 | 145767 5 | 32:23.43 | 8:59.20 | 145768 | 186212 6 | 41:22.63 | 12:32.34 | 186213 | 242646 7 | 53:55.22 | 10:41.20 | 242647 | 290741
Range status and errors
Selected range
Filename D:\Rodney Green Quartet - Live At Smalls - 2013 - SmallsLive.wav
Peak level 100.0 % Extraction speed 1.2 X Range quality 100.0 % Test CRC 7A790432 Copy CRC 7A790432 Copy OK
No errors occurred
AccurateRip summary
Track 1 accurately ripped (confidence 1) [16A48C3F] (AR v2)Track 2 accurately ripped (confidence 1) [65246A3E] (AR v2)Track 3 accurately ripped (confidence 1) [F3D590ED] (AR v2)Track 4 accurately ripped (confidence 1) [68EFD614] (AR v2)Track 5 accurately ripped (confidence 1) [4BBCA7C2] (AR v2)Track 6 accurately ripped (confidence 1) [517509F2] (AR v2)Track 7 not present in database
6 трек(и) скопированы точно 1 трек(и) не содержатся в базе AccurateRip
Some tracks could not be verified as accurate
End of status report
==== Log checksum 66441A8AA7B27E1A26FA3C623CEE72A955CD77353CEE80E213839746374A3D69 ====

Содержание индексной карты (.CUE)

REM GENRE JazzREM DATE 2013REM DISCID 5F0F2407REM COMMENT "ExactAudioCopy v1.1"PERFORMER "Rodney Green Quartet"TITLE "Live At Smalls"FILE "Rodney Green Quartet - Live At Smalls - 2013 - SmallsLive.flac" WAVE  TRACK 01 AUDIO    TITLE "Percy's Delight"    PERFORMER "Rodney Green Quartet"    FLAGS DCP    INDEX 01 00:00:00  TRACK 02 AUDIO    TITLE "Ludus Tonalis"    PERFORMER "Rodney Green Quartet"    FLAGS DCP    INDEX 00 07:46:25    INDEX 01 07:48:10  TRACK 03 AUDIO    TITLE "Painting In The Dark"    PERFORMER "Rodney Green Quartet"    FLAGS DCP    INDEX 00 17:22:67    INDEX 01 17:24:37  TRACK 04 AUDIO    TITLE "Camden"    PERFORMER "Rodney Green Quartet"    FLAGS DCP    INDEX 00 24:34:12    INDEX 01 24:35:38  TRACK 05 AUDIO    TITLE "Believer"    PERFORMER "Rodney Green Quartet"    FLAGS DCP    INDEX 00 32:21:60    INDEX 01 32:23:43  TRACK 06 AUDIO    TITLE "The Citadel"    PERFORMER "Rodney Green Quartet"    FLAGS DCP    INDEX 00 41:21:13    INDEX 01 41:22:63  TRACK 07 AUDIO    TITLE "Bemsha Swing"    PERFORMER "Rodney Green Quartet"    FLAGS DCP    INDEX 00 53:52:22    INDEX 01 53:55:22

Состав

Bass – Joe Sanders
Drums – Rodney Green
Piano – Luis Perdomo
Tenor Saxophone – Seamus Blake

If you like the topic, please click share to help develop our site.

To download the file disable ad blocking, and reload the page.

disable adblock How to disable ad blocking?

Download by magnet link 398 MB Download Torrent

Login using:

Similar topics



   
Current time is: 21-Feb 20:37 :: All times are UTC + 3