-Marco Ragni / Коллекция- -
Жанр: Psychedelic / Space Rock
Носитель: WEB, CD
Год издания: 2011-2016
Страна исполнителя (группы): Italy
Аудиокодек: FLAC (*.flac)
Тип рипа: tracks, tracks+.cue
Битрейт аудио: lossless
Источник (релизер): zavr, bandcamp
Наличие сканов в содержимом раздачи: нет (кроме "Mother from the Sun")

2011 - 1969 [47:27] - [WEB]

Tracklist:
01. Music Is My Home (3:30)
02. Urge to Be Free (3:39)
03. Are You There? (5:55)
04. People of the Rising Sun (3:34)
05. Wide Child Eyes (3:09)
06. Grant Me (4:01)
07. Praise to the Moon (3:48)
08. Her Magic Planet (4:05)
09. Nineteensixtynine (7:01)
10. Strange Heart (6:17)
11. Little Boy Lullaby (2:30)
Line-up / Musicians:
- Marco Ragni / all instruments

Лог проверки качества

-----------------------
DON'T MODIFY THIS FILE
-----------------------
PERFORMER: auCDtect Task Manager, ver. 1.6.0 RC1 build 1.6.0.1Copyright (c) 2008-2010 y-soft. All rights reservedhttp://y-soft.org
ANALYZER: auCDtect: CD records authenticity detector, version 0.8.2Copyright (c) 2004 Oleg Berngardt. All rights reserved.Copyright (c) 2004 Alexander Djourik. All rights reserved.
FILE: 11. Little boy lullaby.flac Size: 17376275 Hash: 6AA07B8B3F2540FBD98DA54412CB9580 Accuracy: -m0 Conclusion: CDDA 100% Signature: E5F0CB3AC49D281A708FAF542072C119F2A64E75FILE: 10. Strange heart.flac Size: 45070025 Hash: 42F306EAE818A23C534422384C4A4160 Accuracy: -m0 Conclusion: CDDA 100% Signature: 4A18D704F3DD96ABC8BBF1F64BFB616EC52CF858FILE: 09. Nineteensixtynine.flac Size: 50970323 Hash: 7D61D896A2BA79A28113069E9F8F9BF5 Accuracy: -m0 Conclusion: CDDA 99% Signature: E0FB184CCC128D95768D567EAC155DA008BD3AE0FILE: 08. Her magic planet.flac Size: 31467052 Hash: 004E78FEB6D94D986494FFD22E716B02 Accuracy: -m0 Conclusion: CDDA 100% Signature: 0CC900351EB5424CAA5A7EF10A9643D95B08FFD1FILE: 07. Praise to the moon.flac Size: 29792410 Hash: DD1E5D7F1D8EC491141DF8934D72637C Accuracy: -m0 Conclusion: CDDA 100% Signature: 3E0FCE5188F35C813EEBF6214D8FE44665478D59FILE: 06. Grant me.flac Size: 30100390 Hash: 1663723E9819D533B405B68DFD8D8E97 Accuracy: -m0 Conclusion: CDDA 76% Signature: 7C3E1D89F5073FC4D6C9BC8F224678F0AEFED143FILE: 05. Wild child eyes.flac Size: 22791499 Hash: 10BC2A43EAAD6014CA514F5086F184C9 Accuracy: -m0 Conclusion: CDDA 99% Signature: 730CF93B8FF774B7DDDCAE6965FD6B01771F19ADFILE: 04. People of the rising sun.flac Size: 27355017 Hash: 9A6ACF7C4B6793C5DAA9F4F24A7074A2 Accuracy: -m0 Conclusion: CDDA 100% Signature: 0B9EB35D5A07052937F0576C7F09819A4188B537FILE: 03. Are you there.flac Size: 45221448 Hash: D2E883734BB7CF539AA3F2AB3C7561C7 Accuracy: -m0 Conclusion: CDDA 100% Signature: 6EFF582716414819A5B54086BFC27E17A95B1D41FILE: 02. Urge to be free.flac Size: 26836508 Hash: BF97530409222BE415C6E386A618746F Accuracy: -m0 Conclusion: CDDA 100% Signature: 48D54139BDA91D8909D6D94DE636BB9B11C14936FILE: 01. Music is my home.flac Size: 24965442 Hash: A0D2043A2A60BE454A8F55872DDAFA19 Accuracy: -m0 Conclusion: CDDA 100% Signature: 442B48026A1CADFD0C91C325BED8A7502E7938F9

Лог DRM

foobar2000 1.3.9 / Dynamic Range Meter 1.1.1log date: 2018-09-01 20:38:40
--------------------------------------------------------------------------------Analyzed: Marco Ragni / 1969--------------------------------------------------------------------------------
DR Peak RMS Duration Track--------------------------------------------------------------------------------DR6 -0.10 dB -8.75 dB 3:32 01-Music is my homeDR5 -0.10 dB -7.23 dB 3:41 02-Urge to be freeDR5 -0.10 dB -7.41 dB 5:57 03-Are you there?DR6 -0.10 dB -7.67 dB 3:36 04-People of the rising sunDR5 -0.10 dB -7.73 dB 3:11 05-Wild child eyesDR6 -0.10 dB -7.92 dB 4:03 06-Grant meDR5 -0.10 dB -7.14 dB 3:50 07-Praise to the moonDR6 -0.10 dB -8.26 dB 4:07 08-Her magic planetDR6 -0.10 dB -8.37 dB 7:03 09-NineteensixtynineDR7 -0.10 dB -9.34 dB 6:19 10-Strange heartDR9 -0.10 dB -10.85 dB 2:30 11-Little boy lullaby--------------------------------------------------------------------------------
Number of tracks: 11Official DR value: DR6
Samplerate: 44100 HzChannels: 2Bits per sample: 16Bitrate: 911 kbpsCodec: FLAC================================================================================

2012 - Lilac Days [31:13] - [WEB]

Tracklist:
01. Do You Believe It? (2:51)
02. Rosemoon (4:47)
03. The Reptile (3:20)
04. Mystical Light (3:39)
05. Purple Magnolia (5:03)
06. The Mountain of Madness (7:27)
07. Lilac Noon (4:07)
Line-up / Musicians:
- Marco Ragni / all instruments

Лог проверки качества

-----------------------
DON'T MODIFY THIS FILE
-----------------------
PERFORMER: auCDtect Task Manager, ver. 1.6.0 RC1 build 1.6.0.1Copyright (c) 2008-2010 y-soft. All rights reservedhttp://y-soft.org
ANALYZER: auCDtect: CD records authenticity detector, version 0.8.2Copyright (c) 2004 Oleg Berngardt. All rights reserved.Copyright (c) 2004 Alexander Djourik. All rights reserved.
FILE: 07. Lilac noon.flac Size: 25120764 Hash: 640738DC2E2651C365212CCED2D9F686 Accuracy: -m0 Conclusion: CDDA 100% Signature: E797F5D95E98D5EF846FD4ABD64FCCF23DAF9CA6FILE: 06. Mountain of fool.flac Size: 52610143 Hash: E3C193F98D3AAF728AB1D6688C2D1250 Accuracy: -m0 Conclusion: CDDA 100% Signature: 773237FE1152FB7203111A7710F11A9833684222FILE: 05. Purple Magnolia.flac Size: 36372009 Hash: C3909848F1AF968E4900C83353A88090 Accuracy: -m0 Conclusion: CDDA 100% Signature: 0DA39C4DFB1D11C21ECD213D1BADFFB761D8EDD0FILE: 04. Mystical light.flac Size: 21985057 Hash: 90406C6B03FC6B17D848C6DEBCC870B2 Accuracy: -m0 Conclusion: CDDA 62% Signature: EBFB2BB0BE973E7747884CF98BDDB284CB18989AFILE: 03. The reptile.flac Size: 22717293 Hash: E6933C902DAC175BF3AD4A2CBB688E18 Accuracy: -m0 Conclusion: CDDA 100% Signature: 32DC29E33D4697B37AAF7CA73E0A6A58EE51A9F7FILE: 02. RoseMoon.flac Size: 27636314 Hash: 1A92359DBBD29C7626A75B78FD5F6599 Accuracy: -m0 Conclusion: CDDA 85% Signature: CC3E18553D7E9B7929FCE88890DEFEAECC96A07CFILE: 01. Do you believe it.flac Size: 21200690 Hash: 0C1612B970E43BAB999792B92508B46F Accuracy: -m0 Conclusion: CDDA 100% Signature: 1AB0DB4F0A4AF23D34F63515F0FDB539C2284FBA

Лог DRM

foobar2000 1.3.9 / Dynamic Range Meter 1.1.1log date: 2018-09-01 20:38:59
--------------------------------------------------------------------------------Analyzed: Marco Ragni / Lilac days--------------------------------------------------------------------------------
DR Peak RMS Duration Track--------------------------------------------------------------------------------DR4 -0.10 dB -5.38 dB 2:51 01-Do you believe it?DR4 -0.10 dB -6.57 dB 4:46 02-RoseMoonDR4 -0.10 dB -5.75 dB 3:22 03-The reptileDR7 -0.10 dB -9.40 dB 3:39 04-Mystical lightDR3 -0.10 dB -5.14 dB 5:03 05-Purple MagnoliaDR4 -0.10 dB -7.26 dB 7:45 06-Mountain of foolDR8 -0.10 dB -12.19 dB 4:07 07-Lilac noon--------------------------------------------------------------------------------
Number of tracks: 7Official DR value: DR5
Samplerate: 44100 HzChannels: 2Bits per sample: 16Bitrate: 804 kbpsCodec: FLAC================================================================================

2013 - On Air: Live Unplugged At Diamond Radio [22:03] - [WEB]

Tracklist:
01. People of the Rising Sun (Live) (3:34)
02. Purple Magnolia (Live) (4:25)
03. Grant Me (Live) (3:16)
04. Medley: Mountain of Fools/West Coast's Glares (3:13)
05. Little Boy Lullaby (Live) (3:04)
06. Are You There? (Bonus Studio Track) (4:32)
Line-up / Musicians:
- Marco Ragni / Voice, acoustic & electric guitars, lap steel guitar
- Isaiah Farnese / Electric & acoustic guitars
- Lucio Tomassetti / Bass, acoustic guitar and vibraphone
- Seneca Pisani / Percussions & vibraphone
- Pamela Polland / vocals on 6

Лог проверки качества

-----------------------
DON'T MODIFY THIS FILE
-----------------------
PERFORMER: auCDtect Task Manager, ver. 1.6.0 RC1 build 1.6.0.1Copyright (c) 2008-2010 y-soft. All rights reservedhttp://y-soft.org
ANALYZER: auCDtect: CD records authenticity detector, version 0.8.2Copyright (c) 2004 Oleg Berngardt. All rights reserved.Copyright (c) 2004 Alexander Djourik. All rights reserved.
FILE: 06. Are You There (Bonus Studio Track) [Live] (feat. Pamela Polland).flac Size: 35792154 Hash: 80F99FDA455E50E693324A92444210B0 Accuracy: -m0 Conclusion: CDDA 100% Signature: 376B6A687E0C8BBA8032581292243B0D5F53C3EAFILE: 05. Little Boy Lullaby (Live).flac Size: 20803631 Hash: 1C66B7745FF1A8B040C74C1F87515839 Accuracy: -m0 Conclusion: CDDA 100% Signature: 962EA4D269E37C489AE8EA5D4D61F835C27F8E96FILE: 04. Medley Mountain of FoolsWest Coast's Glares (Live).flac Size: 38703386 Hash: 25A18EEAA20E41F4B0EF313569A0A06E Accuracy: -m0 Conclusion: CDDA 100% Signature: 0024E8BFF5F9F8695427A622185645553BB6F800FILE: 03. Grant Me (Live).flac Size: 22593659 Hash: 64A9E816FD44B155A5356F9821416F87 Accuracy: -m0 Conclusion: CDDA 100% Signature: FCB02435C451494EE2A96052389EB1AF6B6F65BCFILE: 02. Purple Magnolia (Live).flac Size: 32502663 Hash: AB5A526A24A7A101EF18ECA98CF6DF36 Accuracy: -m0 Conclusion: CDDA 100% Signature: 7B76D3BACF032B3D6BC4E1C4EBD8EDE4C8549750FILE: 01. People of the Rising Sun (Live).flac Size: 26784390 Hash: E8CFA72CDB2456E0E5E51116FD23F5A0 Accuracy: -m0 Conclusion: CDDA 100% Signature: 1D5B488B8BA96D0B491728A7FAC900E3B52162EF

Лог DRM

foobar2000 1.3.9 / Dynamic Range Meter 1.1.1log date: 2018-09-01 20:39:12
--------------------------------------------------------------------------------Analyzed: Marco Ragni / On Air: Live Unplugged at Diamond Radio--------------------------------------------------------------------------------
DR Peak RMS Duration Track--------------------------------------------------------------------------------DR5 -0.10 dB -7.03 dB 3:34 01-People of the Rising Sun (Live)DR5 -0.10 dB -6.54 dB 4:25 02-Purple Magnolia (Live)DR8 -0.10 dB -10.54 dB 3:16 03-Grant Me (Live)DR5 -0.10 dB -7.90 dB 6:08 04-Medley: Mountain of Fools/West Coast's Glares (Live)DR8 -0.10 dB -10.10 dB 3:04 05-Little Boy Lullaby (Live)DR4 -0.10 dB -5.89 dB 4:32 06-Are You There? (Bonus Studio Track) [Live] (feat. Pamela Polland)--------------------------------------------------------------------------------
Number of tracks: 6Official DR value: DR6
Samplerate: 44100 HzChannels: 2Bits per sample: 16Bitrate: 1050 kbpsCodec: FLAC================================================================================

2014 - Mother from the Sun [1:34:21] - [CD]

CD1 - The Rise and Fall of Human Heart

Tracklist:
01. Into The Wheel Of Time (9:14)
02. Sea Of Vibes (15:16)
03. Panting (1:04)
04. Haven Of Marble (17:47)
05. Faint Memory (4:41)
06. The Light Is Burning (2:23)
07. Get Out Of Here (2:11)

Лог создания рипа

Exact Audio Copy V1.0 beta 1 from 15. November 2010
EAC extraction logfile from 5. April 2015, 9:49
Marco Ragni / Mother From The Sun - Part I - The Rise and Fall of Human Heart
Used drive : SlimtypeDVD A DS8A4S Adapter: 1 ID: 0
Read mode : SecureUtilize accurate stream : YesDefeat audio cache : YesMake use of C2 pointers : No
Read offset correction : 6Overread into Lead-In and Lead-Out : NoFill up missing offset samples with silence : YesDelete leading and trailing silent blocks : NoNull samples used in CRC calculations : YesUsed interface : Installed external ASPI interfaceGap handling : Appended to previous track
Used output format : User Defined EncoderSelected bitrate : 896 kBit/sQuality : HighAdd ID3 tag : NoCommand line compressor : C:\Program Files\Exact Audio Copy\Flac\flac.exeAdditional command line options : -8 -V -T "ARTIST=%a" -T "TITLE=%t" -T "ALBUM=%g" -T "DATE=%y" -T "TRACKNUMBER=%n" -T "GENRE=%m" -T "COMMENT=EAC Secure Mode, Test & Copy, AccurateRip, FLAC -8" %s
TOC of the extracted CD
Track | Start | Length | Start sector | End sector --------------------------------------------------------- 1 | 0:00.00 | 9:15.00 | 0 | 41624 2 | 9:15.00 | 15:17.00 | 41625 | 110399 3 | 24:32.00 | 1:05.52 | 110400 | 115326 4 | 25:37.52 | 17:47.70 | 115327 | 195421 5 | 43:25.47 | 4:42.56 | 195422 | 216627 6 | 48:08.28 | 2:24.62 | 216628 | 227489 7 | 50:33.15 | 2:10.64 | 227490 | 237303
Track 1
Filename D:\bzp01\Marco Ragni - Mother From The Sun (2014) [FLAC] {2CD MRRCD22109}\CD1\01 - Into The Wheel Of Time.wav
Pre-gap length 0:00:02.00
Peak level 98.8 % Extraction speed 3.3 X Track quality 100.0 % Test CRC E395B6EC Copy CRC E395B6EC Track not present in AccurateRip database Copy OK
Track 2
Filename D:\bzp01\Marco Ragni - Mother From The Sun (2014) [FLAC] {2CD MRRCD22109}\CD1\02 - Sea Of Vibes.wav
Pre-gap length 0:00:02.00
Peak level 98.8 % Extraction speed 4.2 X Track quality 100.0 % Test CRC 727214B1 Copy CRC 727214B1 Track not present in AccurateRip database Copy OK
Track 3
Filename D:\bzp01\Marco Ragni - Mother From The Sun (2014) [FLAC] {2CD MRRCD22109}\CD1\03 - Panting.wav
Pre-gap length 0:00:02.00
Peak level 98.8 % Extraction speed 3.0 X Track quality 100.0 % Test CRC E0163302 Copy CRC E0163302 Track not present in AccurateRip database Copy OK
Track 4
Filename D:\bzp01\Marco Ragni - Mother From The Sun (2014) [FLAC] {2CD MRRCD22109}\CD1\04 - Heaven Of Marble.wav
Pre-gap length 0:00:02.00
Peak level 98.8 % Extraction speed 5.2 X Track quality 100.0 % Test CRC 384D5543 Copy CRC 384D5543 Track not present in AccurateRip database Copy OK
Track 5
Filename D:\bzp01\Marco Ragni - Mother From The Sun (2014) [FLAC] {2CD MRRCD22109}\CD1\05 - Faint Memory.wav
Pre-gap length 0:00:02.00
Peak level 98.8 % Extraction speed 5.1 X Track quality 100.0 % Test CRC 59EF5495 Copy CRC 59EF5495 Track not present in AccurateRip database Copy OK
Track 6
Filename D:\bzp01\Marco Ragni - Mother From The Sun (2014) [FLAC] {2CD MRRCD22109}\CD1\06 - The Light Is Burning.wav
Pre-gap length 0:00:02.00
Peak level 98.8 % Extraction speed 4.8 X Track quality 100.0 % Test CRC 75C28CA1 Copy CRC 75C28CA1 Track not present in AccurateRip database Copy OK
Track 7
Filename D:\bzp01\Marco Ragni - Mother From The Sun (2014) [FLAC] {2CD MRRCD22109}\CD1\07 - Get Out Of Here.wav
Pre-gap length 0:00:02.00
Peak level 98.8 % Extraction speed 3.5 X Track quality 99.9 % Test CRC E08CB4B8 Copy CRC E08CB4B8 Track not present in AccurateRip database Copy OK
None of the tracks are present in the AccurateRip database
No errors occurred
End of status report
==== Log checksum 719D5675CB63681CE53A39E473B8C76BBC370A1332F91DFF8BC052A666D37D04 ====

Содержание индексной карты (.CUE)

REM GENRE "Progressive Rock"REM DATE 2015REM DISCID 620C5C07REM COMMENT "ExactAudioCopy v1.0b1"PERFORMER "Marco Ragni"TITLE "Mother From The Sun - Part I - The Rise and Fall of Human Heart"FILE "01 - Into The Wheel Of Time.wav" WAVE  TRACK 01 AUDIO    TITLE "Into The Wheel Of Time"    PERFORMER "Marco Ragni"    INDEX 01 00:00:00  TRACK 02 AUDIO    TITLE "Sea Of Vibes"    PERFORMER "Marco Ragni"    INDEX 00 09:13:00FILE "02 - Sea Of Vibes.wav" WAVE    INDEX 01 00:00:00  TRACK 03 AUDIO    TITLE "Panting"    PERFORMER "Marco Ragni"    INDEX 00 15:15:00FILE "03 - Panting.wav" WAVE    INDEX 01 00:00:00  TRACK 04 AUDIO    TITLE "Heaven Of Marble"    PERFORMER "Marco Ragni"    INDEX 00 01:03:52FILE "04 - Heaven Of Marble.wav" WAVE    INDEX 01 00:00:00  TRACK 05 AUDIO    TITLE "Faint Memory"    PERFORMER "Marco Ragni"    INDEX 00 17:45:70FILE "05 - Faint Memory.wav" WAVE    INDEX 01 00:00:00  TRACK 06 AUDIO    TITLE "The Light Is Burning"    PERFORMER "Marco Ragni"    INDEX 00 04:40:56FILE "06 - The Light Is Burning.wav" WAVE    INDEX 01 00:00:00  TRACK 07 AUDIO    TITLE "Get Out Of Here"    PERFORMER "Marco Ragni"    INDEX 00 02:22:62FILE "07 - Get Out Of Here.wav" WAVE    INDEX 01 00:00:00

Лог проверки качества

-----------------------
DON'T MODIFY THIS FILE
-----------------------
PERFORMER: auCDtect Task Manager, ver. 1.6.0 RC1 build 1.6.0.1Copyright (c) 2008-2010 y-soft. All rights reservedhttp://y-soft.org
ANALYZER: auCDtect: CD records authenticity detector, version 0.8.2Copyright (c) 2004 Oleg Berngardt. All rights reserved.Copyright (c) 2004 Alexander Djourik. All rights reserved.
FILE: 07. Get Out Of Here.flac Size: 13766692 Hash: 504613F31E3823962BDEF57E7B4E99DD Accuracy: -m0 Conclusion: CDDA 100% Signature: CA578A62E867BA029C384DDE903A1CFBA13E21BCFILE: 06. The Light Is Burning.flac Size: 14075300 Hash: 4B9B3AB39EFEC1ECE458717324523BD1 Accuracy: -m0 Conclusion: CDDA 100% Signature: 2B65119A6637D790E5064EECF47A161E159219D7FILE: 05. Faint Memory.flac Size: 25279376 Hash: D47D36508C77F43D2743AC34E96ED9F1 Accuracy: -m0 Conclusion: CDDA 94% Signature: 32358F1189DB0EFE12DF9015BE36677A18ED8118FILE: 04. Heaven Of Marble.flac Size: 97954510 Hash: F9E669AC442D72D3956DDEC89EA510FD Accuracy: -m0 Conclusion: CDDA 100% Signature: B04F6829C6ECCEDF1B21ECD274EC2EBB50B9DFF9FILE: 03. Panting.flac Size: 6604299 Hash: AABB3FF627E8345098AF712A0468DF77 Accuracy: -m0 Conclusion: CDDA 100% Signature: 17ACD79078873A4A1EF2ECC7BBF75FA3DFB25A37FILE: 02. Sea Of Vibes.flac Size: 91346583 Hash: 6AF8C82FB25139AB5FF2ECA4C0470580 Accuracy: -m0 Conclusion: CDDA 100% Signature: F4ECC8721502DEDE39F9CC081B2211E97B6BCF97FILE: 01. Into The Wheel Of Time.flac Size: 56502306 Hash: E22D895EE7D94422C58CDB07E5AE4F9E Accuracy: -m0 Conclusion: CDDA 100% Signature: F16988D7719C3AF43469F5E01083C4324D0E7D25

Лог CUETools

[CUETools log; Date: 01.09.2018 20:48:57; Version: 2.1.5][CTDB TOCID: 4ZEFfs7y3yIZIPiSK3Znkb6F2u0-] disk not present in database.[AccurateRip ID: 00117584-00655f2b-620c5c07] found.Track   [  CRC   |   V2   ] Status 01     [3b0c0a0d|03901e19] (0+1/1) Accurately ripped 02     [32af88c2|9db00f98] (0+1/1) Accurately ripped 03     [74de10a4|705cc356] (0+1/1) Accurately ripped 04     [0be6ff49|33cce146] (0+1/1) Accurately ripped 05     [020f93f0|99225633] (0+1/1) Accurately ripped 06     [88cf3994|942abb80] (0+1/1) Accurately ripped 07     [44e1fb9c|978c4d62] (0+1/1) Accurately ripped
Track Peak [ CRC32 ] [W/O NULL] [ LOG ] -- 98,8 [CF857AD5] [4F876A51] 01 98,8 [E395B6EC] [34FFD496] CRC32 02 98,8 [727214B1] [B34FA5C3] CRC32 03 98,8 [E0163302] [FECAAE99] CRC32 04 98,8 [384D5543] [FE8EE5BB] CRC32 05 98,8 [59EF5495] [F6058578] CRC32 06 98,8 [75C28CA1] [BF8FF457] CRC32 07 98,8 [E08CB4B8] [A1E1A644] CRC32

Лог DRM

foobar2000 1.3.9 / Dynamic Range Meter 1.1.1log date: 2018-09-01 20:39:40
--------------------------------------------------------------------------------Analyzed: Marco Ragni / Mother From The Sun - Part I - The Rise and Fall of Human Heart--------------------------------------------------------------------------------
DR Peak RMS Duration Track--------------------------------------------------------------------------------DR7 -0.10 dB -9.13 dB 9:15 01-Into The Wheel Of TimeDR7 -0.10 dB -12.09 dB 15:17 02-Sea Of VibesDR11 -0.10 dB -15.39 dB 1:06 03-PantingDR14 -0.10 dB -17.23 dB 17:48 04-Heaven Of MarbleDR11 -0.10 dB -15.07 dB 4:43 05-Faint MemoryDR6 -0.10 dB -9.13 dB 2:25 06-The Light Is BurningDR9 -0.10 dB -12.54 dB 2:11 07-Get Out Of Here--------------------------------------------------------------------------------
Number of tracks: 7Official DR value: DR9
Samplerate: 44100 HzChannels: 2Bits per sample: 16Bitrate: 836 kbpsCodec: FLAC================================================================================

CD2 - The Awakening of Consciousness

Tracklist:
08. Far Beyond The Line (22:07)
09. The First Time I Saw The Sun (1:20)
10. Skies Painted By The Wind (7:32)
11. In The Air (3:14)
12. Breathing (1:19)
13. Northern Light (4:01)
14. Mother From The Sun (2:13)

Лог создания рипа

Exact Audio Copy V1.0 beta 1 from 15. November 2010
EAC extraction logfile from 5. April 2015, 10:36
Marco Ragni / Mother From The Sun - Part II - The Awakening of Consciousness
Used drive : SlimtypeDVD A DS8A4S Adapter: 1 ID: 0
Read mode : SecureUtilize accurate stream : YesDefeat audio cache : YesMake use of C2 pointers : No
Read offset correction : 6Overread into Lead-In and Lead-Out : NoFill up missing offset samples with silence : YesDelete leading and trailing silent blocks : NoNull samples used in CRC calculations : YesUsed interface : Installed external ASPI interfaceGap handling : Appended to previous track
Used output format : User Defined EncoderSelected bitrate : 896 kBit/sQuality : HighAdd ID3 tag : NoCommand line compressor : C:\Program Files\Exact Audio Copy\Flac\flac.exeAdditional command line options : -8 -V -T "ARTIST=%a" -T "TITLE=%t" -T "ALBUM=%g" -T "DATE=%y" -T "TRACKNUMBER=%n" -T "GENRE=%m" -T "COMMENT=EAC Secure Mode, Test & Copy, AccurateRip, FLAC -8" %s
TOC of the extracted CD
Track | Start | Length | Start sector | End sector --------------------------------------------------------- 1 | 0:00.00 | 22:07.70 | 0 | 99594 2 | 22:07.70 | 1:21.66 | 99595 | 105735 3 | 23:29.61 | 7:33.67 | 105736 | 139777 4 | 31:03.53 | 3:16.49 | 139778 | 154526 5 | 34:20.27 | 1:20.56 | 154527 | 160582 6 | 35:41.08 | 4:02.27 | 160583 | 178759 7 | 39:43.35 | 2:13.00 | 178760 | 188734
Track 1
Filename D:\bzp01\Marco Ragni - Mother From The Sun (2014) [FLAC] {2CD MRRCD22109}\CD2\01 - Far Beyond the Line.wav
Pre-gap length 0:00:02.00
Peak level 98.8 % Extraction speed 1.6 X Track quality 99.9 % Test CRC 5284C070 Copy CRC 5284C070 Track not present in AccurateRip database Copy OK
Track 2
Filename D:\bzp01\Marco Ragni - Mother From The Sun (2014) [FLAC] {2CD MRRCD22109}\CD2\02 - The First Time I saw The Sun.wav
Pre-gap length 0:00:02.00
Peak level 98.8 % Extraction speed 1.2 X Track quality 100.0 % Test CRC 85261E42 Copy CRC 85261E42 Track not present in AccurateRip database Copy OK
Track 3
Filename D:\bzp01\Marco Ragni - Mother From The Sun (2014) [FLAC] {2CD MRRCD22109}\CD2\03 - Skies Painted By The Wind.wav
Pre-gap length 0:00:02.00
Peak level 98.8 % Extraction speed 1.8 X Track quality 99.9 % Test CRC A41A316B Copy CRC A41A316B Track not present in AccurateRip database Copy OK
Track 4
Filename D:\bzp01\Marco Ragni - Mother From The Sun (2014) [FLAC] {2CD MRRCD22109}\CD2\04 - In The Air.wav
Pre-gap length 0:00:02.00
Peak level 98.8 % Extraction speed 1.8 X Track quality 100.0 % Test CRC 7D857A7A Copy CRC 7D857A7A Track not present in AccurateRip database Copy OK
Track 5
Filename D:\bzp01\Marco Ragni - Mother From The Sun (2014) [FLAC] {2CD MRRCD22109}\CD2\05 - Breathing.wav
Pre-gap length 0:00:02.00
Peak level 98.8 % Extraction speed 1.5 X Track quality 100.0 % Test CRC B5921CCA Copy CRC B5921CCA Track not present in AccurateRip database Copy OK
Track 6
Filename D:\bzp01\Marco Ragni - Mother From The Sun (2014) [FLAC] {2CD MRRCD22109}\CD2\06 - Northern Light.wav
Pre-gap length 0:00:02.00
Peak level 98.8 % Extraction speed 2.0 X Track quality 100.0 % Test CRC 7D44CDF0 Copy CRC 7D44CDF0 Track not present in AccurateRip database Copy OK
Track 7
Filename D:\bzp01\Marco Ragni - Mother From The Sun (2014) [FLAC] {2CD MRRCD22109}\CD2\07 - Mother From The Sun.wav
Pre-gap length 0:00:02.00
Peak level 98.8 % Extraction speed 1.8 X Track quality 100.0 % Test CRC EBE3FDE5 Copy CRC EBE3FDE5 Track not present in AccurateRip database Copy OK
None of the tracks are present in the AccurateRip database
No errors occurred
End of status report
==== Log checksum E6342345E4C98860EF6EE05EEA97F3B5FC45695ABA6C452E44D1C7EEA616A0D9 ====

Содержание индексной карты (.CUE)

REM GENRE "Progressive Rock"REM DATE 2014REM DISCID 5209D407REM COMMENT "ExactAudioCopy v1.0b1"PERFORMER "Marco Ragni"TITLE "Mother From The Sun - Part II - The Awakening of Consciousness"FILE "01 - Far Beyond the Line.wav" WAVE  TRACK 01 AUDIO    TITLE "Far Beyond the Line"    PERFORMER "Marco Ragni"    INDEX 01 00:00:00  TRACK 02 AUDIO    TITLE "The First Time I saw The Sun"    PERFORMER "Marco Ragni"    INDEX 00 22:05:70FILE "02 - The First Time I saw The Sun.wav" WAVE    INDEX 01 00:00:00  TRACK 03 AUDIO    TITLE "Skies Painted By The Wind"    PERFORMER "Marco Ragni"    INDEX 00 01:19:66FILE "03 - Skies Painted By The Wind.wav" WAVE    INDEX 01 00:00:00  TRACK 04 AUDIO    TITLE "In The Air"    PERFORMER "Marco Ragni"    INDEX 00 07:31:67FILE "04 - In The Air.wav" WAVE    INDEX 01 00:00:00  TRACK 05 AUDIO    TITLE "Breathing"    PERFORMER "Marco Ragni"    INDEX 00 03:14:49FILE "05 - Breathing.wav" WAVE    INDEX 01 00:00:00  TRACK 06 AUDIO    TITLE "Northern Light"    PERFORMER "Marco Ragni"    INDEX 00 01:18:56FILE "06 - Northern Light.wav" WAVE    INDEX 01 00:00:00  TRACK 07 AUDIO    TITLE "Mother From The Sun"    PERFORMER "Marco Ragni"    INDEX 00 04:00:27FILE "07 - Mother From The Sun.wav" WAVE    INDEX 01 00:00:00

Лог проверки качества

-----------------------
DON'T MODIFY THIS FILE
-----------------------
PERFORMER: auCDtect Task Manager, ver. 1.6.0 RC1 build 1.6.0.1Copyright (c) 2008-2010 y-soft. All rights reservedhttp://y-soft.org
ANALYZER: auCDtect: CD records authenticity detector, version 0.8.2Copyright (c) 2004 Oleg Berngardt. All rights reserved.Copyright (c) 2004 Alexander Djourik. All rights reserved.
FILE: 07. Mother From The Sun.flac Size: 14664765 Hash: 3F6CCC1290AEAB2BB0438F23029D28D0 Accuracy: -m0 Conclusion: CDDA 100% Signature: 829002EF9D2A07CC1E31991435742C295CCE39C6FILE: 06. Northern Light.flac Size: 28072847 Hash: FD2797194EE04166EF7C7BC1D06DF8A9 Accuracy: -m0 Conclusion: CDDA 99% Signature: ED18D6A1D0B7237687E1B5B23B6CBB9B7BFB93F5FILE: 05. Breathing.flac Size: 7075015 Hash: 3D77C463BA79115EF9C6514ACC098613 Accuracy: -m0 Conclusion: CDDA 76% Signature: 3AC8E5E6B95B147D3CDFB598A0C1135A56C9FF1EFILE: 04. In The Air.flac Size: 20220870 Hash: 60B69CD52CA0AA40A76627C5AB839EBC Accuracy: -m0 Conclusion: CDDA 100% Signature: F08DE6F69853D872EDF0DF80F0252C7B720D4389FILE: 03. Skies Painted By The Wind.flac Size: 48933685 Hash: 1406758CEE239D55B808428181FFBBDC Accuracy: -m0 Conclusion: CDDA 99% Signature: B30F4C17B9C74E14E5B20A19ECE43C40AD15C963FILE: 02. The First Time I saw The Sun.flac Size: 6312784 Hash: FA967B2FF4125470D5E0F2B1CB1FF055 Accuracy: -m0 Conclusion: CDDA 87% Signature: 25658475846B617E9FFA9EC20F6A2ACF04C9EE46FILE: 01. Far Beyond the Line.flac Size: 144750587 Hash: A1963709836BDAE8A9110D0861208371 Accuracy: -m0 Conclusion: CDDA 100% Signature: E8DCC3A64193ECAFC7030E199B0CC9B309DE520D

Лог CUETools

[CUETools log; Date: 01.09.2018 20:49:28; Version: 2.1.5][CTDB TOCID: 4rc_Y6P3VLBXVAZ9MOsdMw0sDko-] disk not present in database.[AccurateRip ID: 000fae82-005508ec-5209d407] found.Track   [  CRC   |   V2   ] Status 01     [21e44a2b|637ee7e8] (0+1/1) Accurately ripped 02     [f63a5cd9|16e1c632] (0+1/1) Accurately ripped 03     [5eff187c|54d7a102] (0+1/1) Accurately ripped 04     [2f572fbc|ccc76d62] (0+1/1) Accurately ripped 05     [e356e887|521095b4] (0+1/1) Accurately ripped 06     [04647704|83d7db1f] (0+1/1) Accurately ripped 07     [d07e5967|dba63b5c] (0+1/1) Accurately ripped
Track Peak [ CRC32 ] [W/O NULL] [ LOG ] -- 98,8 [FE53E82C] [EA2F14AD] 01 98,8 [5284C070] [B589CE35] CRC32 02 98,8 [85261E42] [1644245E] CRC32 03 98,8 [A41A316B] [F6B5074F] CRC32 04 98,8 [7D857A7A] [B8D9C94A] CRC32 05 98,8 [B5921CCA] [71389587] CRC32 06 98,8 [7D44CDF0] [40BAC919] CRC32 07 98,8 [EBE3FDE5] [67867D31] CRC32

Лог DRM

foobar2000 1.3.9 / Dynamic Range Meter 1.1.1log date: 2018-09-01 20:39:59
--------------------------------------------------------------------------------Analyzed: Marco Ragni / Mother From The Sun - Part II - The Awakening of Consciousness--------------------------------------------------------------------------------
DR Peak RMS Duration Track--------------------------------------------------------------------------------DR4 -0.10 dB -8.12 dB 22:08 01-Far Beyond the LineDR7 -0.10 dB -11.85 dB 1:22 02-The First Time I saw The SunDR6 -0.10 dB -10.36 dB 7:34 03-Skies Painted By The WindDR9 -0.10 dB -12.48 dB 3:17 04-In The AirDR11 -0.10 dB -14.70 dB 1:21 05-BreathingDR7 -0.10 dB -9.59 dB 4:02 06-Northern LightDR9 -0.10 dB -11.03 dB 2:13 07-Mother From The Sun--------------------------------------------------------------------------------
Number of tracks: 7Official DR value: DR8
Samplerate: 44100 HzChannels: 2Bits per sample: 16Bitrate: 876 kbpsCodec: FLAC================================================================================
--

Состав

- Marco Ragni / voices, acoustic guitar, electric guitar, keyboards, bass, mellotron, orchestral arrangements, drum programming
- Giovanni Menarello / acoustic guitar on 2-7-8-12
- Enrico Cipollini / electric guitar on 2-4
- Davide Gazzi / acoustic guitar on 2
- Enrico di Stefano / saxophone on 1-4-8-12
- Luigi Iaccobone / flute on 4-10-11
- Pamela Anna Polland / backing vocal on 11-13
- Alessandra Pirani / backing vocal on 5
- Silvia Mazzetto / backing vocal on 11
- The Bizarre Talisman Choir / folks voices on 4

2015 - Hidden Sun [56:57] - [WEB]

Tracklist:
01. Into the wheel of time (Instrumental demo version) (9:36)
02. The flow (Excerpt of Sea of vibes - demo) (9:10)
03. Sea of vibes (Demo) (4:38)
04. Band Jam #31 (Unreleased) (2:21)
05. Far beyond the line parts 1-2 (Alternate take) (8:16)
06. Skies painted by the wind (Piano version) (5:38)
07. In the air (demo version) (4:42)
08. The light is burning (Alternate take) (6:08)
09. Get out of here (Alternate Track) (4:09)
10. Faint memory (Piano version) (2:21)
Line-up / Musicians:
- Marco Ragni / Vocals, Guitar, Bass, Keyboards, Greek Bouzouky, Drums and Programming
- Enrico Di Stefano / Sax
- Davide Gazzi / Acoustic Guitar
- Luigi Iacobone / Flute
- Enrico Cipollini / Electric Guitar

Лог проверки качества

-----------------------
DON'T MODIFY THIS FILE
-----------------------
PERFORMER: auCDtect Task Manager, ver. 1.6.0 RC1 build 1.6.0.1Copyright (c) 2008-2010 y-soft. All rights reservedhttp://y-soft.org
ANALYZER: auCDtect: CD records authenticity detector, version 0.8.2Copyright (c) 2004 Oleg Berngardt. All rights reserved.Copyright (c) 2004 Alexander Djourik. All rights reserved.
FILE: 10. Faint memory (Piano version).flac Size: 13701332 Hash: C1F2587D8E5822714B7F19C5EDA66E41 Accuracy: -m0 Conclusion: CDDA 100% Signature: DE3C4C0C7B2FFF54C57C1C5AFD5EE3B5F5860576FILE: 09. Get out of here (Alternate Track).flac Size: 26867530 Hash: AEA58643E470F8DD4003B827D0B57AE4 Accuracy: -m0 Conclusion: CDDA 100% Signature: 0B8B1D43EDD25251A82E4D122DE2AC92AC26F3F5FILE: 08. The light is burning (Alternate take).flac Size: 39509634 Hash: 0655C46F329CE55EAAAEEB729BA36AB7 Accuracy: -m0 Conclusion: CDDA 99% Signature: 6F14FB0677A081DBF4709D357DDBCC2A5933CB28FILE: 07. In the air (demo version).flac Size: 28548077 Hash: DA89C966CF1569A2EF9A886F0B1003C4 Accuracy: -m0 Conclusion: MPEG 95% Signature: D969CEDAD67C4C1934B596A353005FD2D66CF635FILE: 06. Skies painted by the wind (Piano version).flac Size: 33533320 Hash: D6CD323178B20D04A9B8CA4E3BC8F957 Accuracy: -m0 Conclusion: CDDA 100% Signature: 4BD923C52A755F17132376EC982628FD27979A0DFILE: 05. Far beyond the line parts 1-2 (Alternate take).flac Size: 47626549 Hash: C148C0C1C389CF4F4AC53685C3399711 Accuracy: -m0 Conclusion: CDDA 49% Signature: 67F1170BB58153C9A409B11756C5EA1225F3481EFILE: 04. Band Jam #31 (Unreleased).flac Size: 15181238 Hash: 4E698EDBD73CFBE09C7BA59745392D35 Accuracy: -m0 Conclusion: MPEG 95% Signature: 93FEEFD43687FC8DD46B4427CC56FB0D9CA16557FILE: 03. Sea of vibes (Demo).flac Size: 33425796 Hash: F44B3706686909FF52254CF7C0A2F3A6 Accuracy: -m0 Conclusion: CDDA 99% Signature: F628C1D5A5490A062ACE6873BC12399CA8DC2A25FILE: 02. The flow (Excerpt of Sea of vibes - demo).flac Size: 56476673 Hash: 16521337DA61D310ECAAE0CD8A4E9DE0 Accuracy: -m0 Conclusion: CDDA 99% Signature: DB6762DE029C0B3B40B878F0C2C60946A76DB344FILE: 01. Into the wheel of time (Instrumental demo version).flac Size: 50661726 Hash: C0D198A9B0D466A51E414EF37AAB867D Accuracy: -m0 Conclusion: CDDA 100% Signature: 18ACBD2A14BE236F06C0506B52696209961039BC

Скриншот спектра частот


Лог DRM

foobar2000 1.3.9 / Dynamic Range Meter 1.1.1log date: 2018-09-01 20:40:22
--------------------------------------------------------------------------------Analyzed: Marco Ragni / Hidden Sun--------------------------------------------------------------------------------
DR Peak RMS Duration Track--------------------------------------------------------------------------------DR7 -0.10 dB -9.85 dB 9:36 01-Into the wheel of time (Instrumental demo version)DR4 -0.10 dB -7.49 dB 9:10 02-The flow (Excerpt of Sea of vibes - demo)DR3 -0.10 dB -5.66 dB 4:38 03-Sea of vibes (Demo)DR6 0.00 dB -7.73 dB 2:21 04-Band Jam #31 (Unreleased)DR5 -0.10 dB -9.54 dB 8:16 05-Far beyond the line parts 1-2 (Alternate take)DR6 -0.10 dB -10.99 dB 5:38 06-Skies painted by the wind (Piano version)DR7 -0.10 dB -10.26 dB 4:42 07-In the air (demo version)DR6 -0.10 dB -8.65 dB 6:08 08-The light is burning (Alternate take)DR8 -0.10 dB -9.79 dB 4:09 09-Get out of here (Alternate Track)DR9 -0.10 dB -13.23 dB 2:21 10-Faint memory (Piano version)--------------------------------------------------------------------------------
Number of tracks: 10Official DR value: DR6
Samplerate: 44100 HzChannels: 2Bits per sample: 16Bitrate: 771 kbpsCodec: FLAC================================================================================

2016 - Land of Blue Echoes [1:14:27] - [WEB]

Tracklist:
01. Between Moon and Earth (3:25)
02. Horizons (15:22)
03. Land of Blue Echoes (3:57)
04. Money Doesn't Think (5:42)
05. Canto D'amore (4:34)
06. Deep Night (4:34)
07. Beltane (7:28)
08. Nucleus, Pts. I-III (22:46)
09. Queen of Blue Fires (6:40)
Line-up / Musicians:
- Marco Ragni / Vocals, Electric & Acoustic Guitars, Bass, Piano Keyboards & Greek Bouzouki
With:
- Durga McBroom (Pink Floyd) / Vocals
- Peter Matuchniak / Lead Guitar
- Jeff Mack (Scarlet Hollow) / Bass
- Jacopo Ghirardini (Stalag 17) / Drums
- Fernando Perdomo / Lead Guitar (4)
- Colin Tench (Corvus Stone) / Lead Guitar (1)
- Vance Gloster (Gekko Project) / Keyboards, Hammond Organ
- Hamlet (Transport Aerian) / Bass (9)

Лог проверки качества

-----------------------
DON'T MODIFY THIS FILE
-----------------------
PERFORMER: auCDtect Task Manager, ver. 1.6.0 RC1 build 1.6.0.1Copyright (c) 2008-2010 y-soft. All rights reservedhttp://y-soft.org
ANALYZER: auCDtect: CD records authenticity detector, version 0.8.2Copyright (c) 2004 Oleg Berngardt. All rights reserved.Copyright (c) 2004 Alexander Djourik. All rights reserved.
FILE: 09. Queen of Blue Fires.flac Size: 47867045 Hash: 46A8E91DC64E221429F03DE8AABAE67E Accuracy: -m0 Conclusion: CDDA 100% Signature: E66CB60CA4AEBFC9CE87E9DD6828D66B55113D1EFILE: 08. Nucleus, Pts. I-III.flac Size: 154747676 Hash: D7A6733188E9AABE3130A79D0C055FAF Accuracy: -m0 Conclusion: CDDA 100% Signature: AB9DF28633D38BBD9C0CC726419816DF3BCE70ACFILE: 07. Beltane.flac Size: 50667776 Hash: 7D8C3EEF065F4873055963CC58257E4D Accuracy: -m0 Conclusion: CDDA 99% Signature: 5C1D042BB41D4A7568B272DC22E2AB86108AACC3FILE: 06. Deep Night.flac Size: 27075791 Hash: A9406AFC0411A8ACE71CA430112F0EC2 Accuracy: -m0 Conclusion: CDDA 100% Signature: F872A435F0ADB04AF3FB7B0EFD8DC6EDB953F08BFILE: 05. Canto D'amore.flac Size: 27040779 Hash: EE03081FA98C59CFE293E7A6794A3AF0 Accuracy: -m0 Conclusion: CDDA 87% Signature: 30E607127DA4B63F8E7FF8DBDF7B6F6484959BB2FILE: 04. Money Doesn't Think.flac Size: 39829743 Hash: F650E5ABD902CBE69045ED115912A110 Accuracy: -m0 Conclusion: CDDA 100% Signature: 62472C71A5BC57BE73C6913A299CE826B3C2CA54FILE: 03. Land of Blue Echoes.flac Size: 24080086 Hash: D48296EFDFD0F87801CC22264EDC5C0F Accuracy: -m0 Conclusion: CDDA 100% Signature: E1C452742A54704CC02E9366F8F19E522F3D1F1CFILE: 02. Horizons.flac Size: 98331446 Hash: 33A00D62839D4D999364439591E78EC7 Accuracy: -m0 Conclusion: CDDA 100% Signature: D0139573495C947387EB2CE30BDAE6B057875B80FILE: 01. Between Moon and Earth.flac Size: 22361350 Hash: 1C458F3492295AC04AEA8E85CD6EB572 Accuracy: -m0 Conclusion: CDDA 100% Signature: 962321B543CEDC73BD31961BB14F1A27A0B3F4BD

Лог DRM

foobar2000 1.3.9 / Dynamic Range Meter 1.1.1log date: 2018-09-01 20:47:30
--------------------------------------------------------------------------------Analyzed: Marco Ragni / Land of Blue Echoes--------------------------------------------------------------------------------
DR Peak RMS Duration Track--------------------------------------------------------------------------------DR6 -0.10 dB -8.52 dB 3:25 01-Between Moon and EarthDR6 -0.10 dB -9.36 dB 15:22 02-HorizonsDR6 0.00 dB -9.44 dB 3:57 03-Land of Blue EchoesDR4 -0.10 dB -6.56 dB 5:42 04-Money Doesn't ThinkDR8 0.00 dB -11.91 dB 4:34 05-Canto D'amoreDR4 -0.10 dB -8.27 dB 4:34 06-Deep NightDR7 -0.10 dB -10.00 dB 7:28 07-BeltaneDR4 -0.10 dB -7.49 dB 22:46 08-Nucleus, Pts. I-IIIDR4 -0.10 dB -6.81 dB 6:40 09-Queen of Blue Fires--------------------------------------------------------------------------------
Number of tracks: 9Official DR value: DR6
Samplerate: 44100 HzChannels: 2Bits per sample: 16Bitrate: 957 kbpsCodec: FLAC================================================================================

2016 - Rajanty (Soundtrack from the Valley of Purple Light) (EP) [28:46] - [WEB]

Tracklist:
01. The Moon Turns the Tides (5:31)
02. The Rush (3:12)
03. The Purple Light (2:56)
04. Grain Fields & Summer's Dream (3:27)
05. Inside the Sunrise (2:49)
06. Uranus Man (6:27)
07. Rajanty (4:25)
Line-up / Musicians:
- Marco Ragni / Electric and Acoustic Guitars, Keyboards, Mellotron, Lap Steel Guitar, Percussions & Drum Programming

Лог проверки качества

-----------------------
DON'T MODIFY THIS FILE
-----------------------
PERFORMER: auCDtect Task Manager, ver. 1.6.0 RC1 build 1.6.0.1Copyright (c) 2008-2010 y-soft. All rights reservedhttp://y-soft.org
ANALYZER: auCDtect: CD records authenticity detector, version 0.8.2Copyright (c) 2004 Oleg Berngardt. All rights reserved.Copyright (c) 2004 Alexander Djourik. All rights reserved.
FILE: 07. Rajanty.flac Size: 26675071 Hash: 3BD5F2140CC37EDFBCB16B969A063C34 Accuracy: -m0 Conclusion: CDDA 100% Signature: 979A8B01F6568CE10953BD0C2E7859890F5485F6FILE: 06. Uranus Man.flac Size: 38949348 Hash: A1518BEC01C43A690B36119FEF535F9E Accuracy: -m0 Conclusion: CDDA 99% Signature: 7907740C5BA0AE6414B561400B00C6F04F29D054FILE: 05. Inside the Sunrise.flac Size: 17075115 Hash: 570D14BC4BFDD4C521A5E1060E39A40A Accuracy: -m0 Conclusion: CDDA 99% Signature: 7AD1A09FBBFF5F06680CE5F3EE56F6AB3DE45624FILE: 04. Grain Fields & Summer's Dream.flac Size: 16601820 Hash: 4C6A115878863FA40B0BEA69CD1C9EE8 Accuracy: -m0 Conclusion: CDDA 99% Signature: C0731B072C618A5513C7F528A776791D69F265DEFILE: 03. The Purple Light.flac Size: 17815615 Hash: 9E3B98AAA1A5A384955CB19E076F67D5 Accuracy: -m0 Conclusion: CDDA 100% Signature: 6BEE69D0CA175C43545B831762DB89E519DEAAE9FILE: 02. The Rush.flac Size: 22382793 Hash: B47225B491F83F2B9B6B602694727766 Accuracy: -m0 Conclusion: CDDA 99% Signature: FF91DF1D3019413C92232E474D433F6C0A1A6EEFFILE: 01. The Moon Turns the Tides.flac Size: 30776518 Hash: 8CBD49A02DBAA9133F621088D2EFF199 Accuracy: -m0 Conclusion: CDDA 100% Signature: 6940A276842C9C79720BF9D5C20A77AACB3B8F44

Лог DRM

foobar2000 1.3.9 / Dynamic Range Meter 1.1.1log date: 2018-09-01 20:47:47
--------------------------------------------------------------------------------Analyzed: Marco Ragni / Rajanty (Soundtrack from the Valley of Purple Light)--------------------------------------------------------------------------------
DR Peak RMS Duration Track--------------------------------------------------------------------------------DR7 -0.10 dB -10.31 dB 5:31 01-The Moon Turns the TidesDR7 -0.30 dB -9.88 dB 3:12 02-The RushDR9 -0.20 dB -11.64 dB 2:56 03-The Purple LightDR12 -0.10 dB -16.82 dB 3:27 04-Grain Fields & Summer's DreamDR10 -0.10 dB -12.08 dB 2:49 05-Inside the SunriseDR7 -0.10 dB -10.63 dB 6:27 06-Uranus ManDR8 -0.10 dB -10.45 dB 4:25 07-Rajanty--------------------------------------------------------------------------------
Number of tracks: 7Official DR value: DR9
Samplerate: 44100 HzChannels: 2Bits per sample: 16Bitrate: 804 kbpsCodec: FLAC================================================================================

2016 - The Unconventional and Unusual Journey Through the 21st Schizophrenic Century and Beyond (EP) [30:26] - [WEB]

Tracklist:
01. Take a Trip Man, There's a Huge World Outside (12:25)
02. The Psychedelic Waiting Room with a Thousand Horses (3:28)
03. Watching the Other Side, a Mystical Light (7:08)
04. A Voice Inside? (3:40)
05. California Radio & The Sparkling Skins (3:46)

Лог проверки качества

-----------------------
DON'T MODIFY THIS FILE
-----------------------
PERFORMER: auCDtect Task Manager, ver. 1.6.0 RC1 build 1.6.0.1Copyright (c) 2008-2010 y-soft. All rights reservedhttp://y-soft.org
ANALYZER: auCDtect: CD records authenticity detector, version 0.8.2Copyright (c) 2004 Oleg Berngardt. All rights reserved.Copyright (c) 2004 Alexander Djourik. All rights reserved.
FILE: 05. California Radio & The Sparkling Skins.flac Size: 28525306 Hash: 4340E330C0555301849EEDD8BEF546A8 Accuracy: -m0 Conclusion: CDDA 100% Signature: FE873275618565968C0EBE50E8EE928FF9EF80D1FILE: 04. A Voice Inside.flac Size: 25166414 Hash: 3C31EBA2EACEF424C5D9B0591913A03D Accuracy: -m0 Conclusion: CDDA 99% Signature: A020E299228FBDAB183F8DD16C1B85F7AD603942FILE: 03. Watching the Other Side, a Mystical Light.flac Size: 48695799 Hash: 5DE3BA86067B992C72BC288CBEEB4D92 Accuracy: -m0 Conclusion: CDDA 100% Signature: 241BF6F34E013763C46373741D98D98A78BE1B73FILE: 02. The Psychedelic Waiting Room with a Thousand Horses.flac Size: 20237968 Hash: D4D864DC97A738F812E52C5DE551CE36 Accuracy: -m0 Conclusion: CDDA 100% Signature: 98ED827C22842BB447ACDD1F114DB1D0FB3A9F3BFILE: 01. Take a Trip Man, There's a Huge World Outside.flac Size: 79157938 Hash: E335401196FD185C8A23E00C4FF8D937 Accuracy: -m0 Conclusion: CDDA 100% Signature: 74F15BD687E8C59F7079724A24D9F77C16CD5CD0

Лог DRM

foobar2000 1.3.9 / Dynamic Range Meter 1.1.1log date: 2018-09-01 22:13:15
--------------------------------------------------------------------------------Analyzed: Marco Ragni / The Unconventional and Unusual Journey Through the 21st Schizophrenic Century and Beyond--------------------------------------------------------------------------------
DR Peak RMS Duration Track--------------------------------------------------------------------------------DR5 0.00 dB -9.99 dB 12:25 01-Take a Trip Man, There's a Huge World OutsideDR9 -0.20 dB -11.91 dB 3:28 02-The Psychedelic Waiting Room with a Thousand HorsesDR4 -2.78 dB -7.69 dB 7:08 03-Watching the Other Side, a Mystical LightDR6 0.00 dB -9.77 dB 3:40 04-A Voice Inside?DR3 0.00 dB -5.03 dB 3:46 05-California Radio & The Sparkling Skins--------------------------------------------------------------------------------
Number of tracks: 5Official DR value: DR5
Samplerate: 44100 HzChannels: 2Bits per sample: 16Bitrate: 1000 kbpsCodec: FLAC================================================================================

2016 - California (EP) [25:47] - [WEB]

Tracklist:
01. Big Sur (4:00)
02. S.L.O. (2:37)
03. The Giant, The Fool and the Tattoist (6:26)
04. Good Times in San Francisco (3:39)
05. Chasing the Sun (3:29)
06. La Sierra (3:07)
07. Henry Miller's Library (2:29)
Line-up / Musicians:
- Marco Ragni / Vocals, 6 and 12 Strings Acoustic Guitars, Electric Guitar Piano Rhodes, Keyboards, Lap Steel
- Jeff Mack / Bass
- Jacopo Ghirardini / Drum
With:
- Ian Beabout / Flute (1,3)
- Claudio Lupo / Hammond (1,2)
- Enrico Cipollini / Lead Guitar (4)

Лог проверки качества

-----------------------
DON'T MODIFY THIS FILE
-----------------------
PERFORMER: auCDtect Task Manager, ver. 1.6.0 RC1 build 1.6.0.1Copyright (c) 2008-2010 y-soft. All rights reservedhttp://y-soft.org
ANALYZER: auCDtect: CD records authenticity detector, version 0.8.2Copyright (c) 2004 Oleg Berngardt. All rights reserved.Copyright (c) 2004 Alexander Djourik. All rights reserved.
FILE: 07. Henry Miller's Library.flac Size: 17242569 Hash: D2259684327A59FE0C0C5E93B9C3BF57 Accuracy: -m0 Conclusion: CDDA 99% Signature: 01745BB2FAEE083470FCA2B0079EA64163EF4A63FILE: 06. La Sierra.flac Size: 18107215 Hash: CCC87DB8AE284DD8AD5B3BACFDB685CF Accuracy: -m0 Conclusion: CDDA 85% Signature: 69C1519593CE53CC27F6CC84FC7CED6E2DB4C4E6FILE: 05. Chasing the Sun.flac Size: 25713222 Hash: AE0228AFEB0114B1B31986F3DF0A5C57 Accuracy: -m0 Conclusion: CDDA 100% Signature: FCB94A022EE544FF883FDB3D83C2F8C64B0CB6E0FILE: 04. Good Times in San Francisco.flac Size: 25773036 Hash: BEAC64B520FE2169402FEBC25AA5DF91 Accuracy: -m0 Conclusion: CDDA 100% Signature: 74E1F3E5ACA9BF7CE64B2460EABD08F598C9AEE1FILE: 03. The Giant, The Fool and the Tattoist.flac Size: 45988495 Hash: 0488BDC44E109673E63954E94AFEBB60 Accuracy: -m0 Conclusion: CDDA 99% Signature: 207C41749C1A03B05FDF9A8DC00BBF7F2CA23C73FILE: 02. S.L.O..flac Size: 19707518 Hash: 7C68A9CB2002FEEE0A8E8F041207E1AC Accuracy: -m0 Conclusion: CDDA 100% Signature: A3C835E402C13CC9AE2F755987A244EC1149E342FILE: 01. Big Sur.flac Size: 26309826 Hash: 34F2967102F2A73E233B1D5732246C50 Accuracy: -m0 Conclusion: CDDA 100% Signature: E43F36B1E72869F6CD65D4F2BF5A0F6D35B39A21

Лог DRM

foobar2000 1.3.9 / Dynamic Range Meter 1.1.1log date: 2018-09-01 20:46:59
--------------------------------------------------------------------------------Analyzed: Marco Ragni / California--------------------------------------------------------------------------------
DR Peak RMS Duration Track--------------------------------------------------------------------------------DR10 -0.10 dB -13.07 dB 4:00 01-Big SurDR8 -0.10 dB -9.51 dB 2:37 02-S.L.O.DR9 -0.20 dB -11.18 dB 6:26 03-The Giant, The Fool and the TattoistDR8 -0.10 dB -9.44 dB 3:39 04-Good Times in San FranciscoDR6 -2.70 dB -10.34 dB 3:29 05-Chasing the SunDR9 -0.10 dB -13.57 dB 3:07 06-La SierraDR8 -0.10 dB -10.68 dB 2:29 07-Henry Miller's Library--------------------------------------------------------------------------------
Number of tracks: 7Official DR value: DR8
Samplerate: 44100 HzChannels: 2Bits per sample: 16Bitrate: 918 kbpsCodec: FLAC================================================================================
-Релиз от группы:
-

If you like the topic, please click share to help develop our site.

To download the file disable ad blocking, and reload the page.

disable adblock How to disable ad blocking?

Download by magnet link 2.65 GB Download Torrent

Login using:

Similar topics



   
Current time is: 22-Apr 09:22 :: All times are UTC + 3