Muscle Kings Of Mexico / Fear No Man !
Жанр: Free Jazz, Free Improvisation
Носитель: CD
Страна-производитель диска (релиза): Finland
Год издания: 2012
Издатель (лейбл): Kissankusi Records ‎
Номер по каталогу: kusi-19
Аудиокодек: FLAC (*.flac)
Тип рипа: tracks+.cue
Битрейт аудио: lossless
Продолжительность: 00:37:24
Источник (релизер): локальная сеть
Наличие сканов в содержимом раздачи: нет
Треклист:
01 Tiger Rough 2:13
02 Mr. America 6:05
03 Iron Master 5:28
04 Deadly Shuto Axe-Hand 2:27
05 Don´t Be Mislead 4:14
06 Bulk Up Definition 4:28
07 Fear No Man ! 7:15
08 Adios Maria 5:10

Лог создания рипа

X Lossless Decoder version 20151214 (149.1)
XLD extraction logfile from 2016-04-19 18:28:32 +0300
Muscle Kings of Mexico / Fear No Man!
Used drive : HL-DT-ST DVDRW GX30N (revision RP09)Media type : Pressed CD
Ripper mode : XLD Secure RipperDisable audio cache : OK for the drive with a cache less than 1375KiBMake use of C2 pointers : NORead offset correction : 6Max retry count : 100Gap status : Analyzed, Appended (except HTOA)
TOC of the extracted CD Track | Start | Length | Start sector | End sector --------------------------------------------------------- 1 | 00:00:00 | 02:13:73 | 0 | 10047 2 | 02:13:73 | 06:05:19 | 10048 | 37441 3 | 08:19:17 | 05:28:59 | 37442 | 62100 4 | 13:48:01 | 02:27:01 | 62101 | 73126 5 | 16:15:02 | 04:14:32 | 73127 | 92208 6 | 20:29:34 | 04:28:50 | 92209 | 112358 7 | 24:58:09 | 07:15:21 | 112359 | 145004 8 | 32:13:30 | 05:10:62 | 145005 | 168316
AccurateRip Summary Disc not found in AccurateRip DB.
All Tracks Album gain : -7.57 dB Peak : 0.966187 Statistics Read error : 0 Jitter error (maybe fixed) : 0 Retry sector count : 0 Damaged sector count : 0
Track 01 Filename : /Users/anch/Music/Grabbed/Muscle Kings of Mexico/F 2012 - Fear No Man/01 - Tiger Rough.flac Pre-gap length : 00:02:00
Track gain : -6.66 dB Peak : 0.966125 CRC32 hash (test run) : C17E8EE3 CRC32 hash : C17E8EE3 CRC32 hash (skip zero) : 852279E0 AccurateRip v1 signature : 3FED2C52 AccurateRip v2 signature : 7885AECC ->Track not present in AccurateRip database. Statistics Read error : 0 Jitter error (maybe fixed) : 0 Retry sector count : 0 Damaged sector count : 0
Track 02 Filename : /Users/anch/Music/Grabbed/Muscle Kings of Mexico/F 2012 - Fear No Man/02 - Mr. America.flac Pre-gap length : 00:02:11
Track gain : -6.94 dB Peak : 0.966156 CRC32 hash (test run) : 78664D3C CRC32 hash : 78664D3C CRC32 hash (skip zero) : EBCCCF04 AccurateRip v1 signature : D8051330 AccurateRip v2 signature : 7E8D4CCD ->Track not present in AccurateRip database. Statistics Read error : 0 Jitter error (maybe fixed) : 0 Retry sector count : 0 Damaged sector count : 0
Track 03 Filename : /Users/anch/Music/Grabbed/Muscle Kings of Mexico/F 2012 - Fear No Man/03 - Iron Master.flac Pre-gap length : 00:00:37
Track gain : -7.17 dB Peak : 0.966125 CRC32 hash (test run) : 59A120DD CRC32 hash : 59A120DD CRC32 hash (skip zero) : 699AB581 AccurateRip v1 signature : 8F4222CC AccurateRip v2 signature : B592A2C8 ->Track not present in AccurateRip database. Statistics Read error : 0 Jitter error (maybe fixed) : 0 Retry sector count : 0 Damaged sector count : 0
Track 04 Filename : /Users/anch/Music/Grabbed/Muscle Kings of Mexico/F 2012 - Fear No Man/04 - Deadly Shuto Axe-Hand.flac Pre-gap length : 00:00:48
Track gain : -10.38 dB Peak : 0.966156 CRC32 hash (test run) : 75DBA332 CRC32 hash : 75DBA332 CRC32 hash (skip zero) : 31E3EF60 AccurateRip v1 signature : EF3E0E21 AccurateRip v2 signature : F87CDAE7 ->Track not present in AccurateRip database. Statistics Read error : 0 Jitter error (maybe fixed) : 0 Retry sector count : 0 Damaged sector count : 0
Track 05 Filename : /Users/anch/Music/Grabbed/Muscle Kings of Mexico/F 2012 - Fear No Man/05 - Don't Be Mislead.flac Pre-gap length : 00:05:22
Track gain : -3.06 dB Peak : 0.966095 CRC32 hash (test run) : 120BAFE0 CRC32 hash : 120BAFE0 CRC32 hash (skip zero) : D9D65234 AccurateRip v1 signature : 4C6E4F82 AccurateRip v2 signature : 03DFDA07 ->Track not present in AccurateRip database. Statistics Read error : 0 Jitter error (maybe fixed) : 0 Retry sector count : 0 Damaged sector count : 0
Track 06 Filename : /Users/anch/Music/Grabbed/Muscle Kings of Mexico/F 2012 - Fear No Man/06 - Bulk Up Definition.flac Pre-gap length : 00:04:01
Track gain : -4.22 dB Peak : 0.966095 CRC32 hash (test run) : FCADECE0 CRC32 hash : FCADECE0 CRC32 hash (skip zero) : D2E38975 AccurateRip v1 signature : E85328A7 AccurateRip v2 signature : E20CA86D ->Track not present in AccurateRip database. Statistics Read error : 0 Jitter error (maybe fixed) : 0 Retry sector count : 0 Damaged sector count : 0
Track 07 Filename : /Users/anch/Music/Grabbed/Muscle Kings of Mexico/F 2012 - Fear No Man/07 - Fear No Man.flac Pre-gap length : 00:03:05
Track gain : -7.82 dB Peak : 0.966187 CRC32 hash (test run) : 89EC3CE7 CRC32 hash : 89EC3CE7 CRC32 hash (skip zero) : 58927F5C AccurateRip v1 signature : 5502A462 AccurateRip v2 signature : 219FB4DA ->Track not present in AccurateRip database. Statistics Read error : 0 Jitter error (maybe fixed) : 0 Retry sector count : 0 Damaged sector count : 0
Track 08 Filename : /Users/anch/Music/Grabbed/Muscle Kings of Mexico/F 2012 - Fear No Man/08 - Adios Maria.flac Pre-gap length : 00:03:55
Track gain : -5.44 dB Peak : 0.966125 CRC32 hash (test run) : 13C27CC2 CRC32 hash : 13C27CC2 CRC32 hash (skip zero) : C780C8F8 AccurateRip v1 signature : AD2DE05B AccurateRip v2 signature : C4799E04 ->Track not present in AccurateRip database. Statistics Read error : 0 Jitter error (maybe fixed) : 0 Retry sector count : 0 Damaged sector count : 0
No errors occurred
End of status report
-----BEGIN XLD SIGNATURE-----SpBa10cRDvTY5S8I4MpplW8fIF0trsbs8MU8dfPg1o_1kcUsdraNIwthMpD6ogC.bOFm5wubj9JLKDK3lbyNbnnFFprW_mM9yvb604a-----END XLD SIGNATURE-----

Содержание индексной карты (.CUE)

TITLE "Fear No Man!"PERFORMER "Muscle Kings of Mexico"REM GENRE "Jazz / World"REM DATE "2012"REM DISCNUMBER 1REM TOTALDISCS 1REM DISCID 5208C408REM REPLAYGAIN_ALBUM_GAIN -7.57 dBREM REPLAYGAIN_ALBUM_PEAK 0.966187FILE "01 - Tiger Rough.flac" WAVE  TRACK 01 AUDIO    TITLE "Tiger Rough"    PERFORMER "Muscle Kings of Mexico"    FLAGS DCP    REM REPLAYGAIN_TRACK_GAIN -6.66 dB    REM REPLAYGAIN_TRACK_PEAK 0.966125    INDEX 01 00:00:00  TRACK 02 AUDIO    TITLE "Mr. America"    PERFORMER "Muscle Kings of Mexico"    FLAGS DCP    REM REPLAYGAIN_TRACK_GAIN -6.94 dB    REM REPLAYGAIN_TRACK_PEAK 0.966156    INDEX 00 02:11:62FILE "02 - Mr. America.flac" WAVE    INDEX 01 00:00:00  TRACK 03 AUDIO    TITLE "Iron Master"    PERFORMER "Muscle Kings of Mexico"    FLAGS DCP    REM REPLAYGAIN_TRACK_GAIN -7.17 dB    REM REPLAYGAIN_TRACK_PEAK 0.966125    INDEX 00 06:04:57FILE "03 - Iron Master.flac" WAVE    INDEX 01 00:00:00  TRACK 04 AUDIO    TITLE "Deadly Shuto Axe-Hand"    PERFORMER "Muscle Kings of Mexico"    FLAGS DCP    REM REPLAYGAIN_TRACK_GAIN -10.38 dB    REM REPLAYGAIN_TRACK_PEAK 0.966156    INDEX 00 05:28:11FILE "04 - Deadly Shuto Axe-Hand.flac" WAVE    INDEX 01 00:00:00  TRACK 05 AUDIO    TITLE "Don't Be Mislead"    PERFORMER "Muscle Kings of Mexico"    FLAGS DCP    REM REPLAYGAIN_TRACK_GAIN -3.06 dB    REM REPLAYGAIN_TRACK_PEAK 0.966095    INDEX 00 02:21:54FILE "05 - Don't Be Mislead.flac" WAVE    INDEX 01 00:00:00  TRACK 06 AUDIO    TITLE "Bulk Up Definition"    PERFORMER "Muscle Kings of Mexico"    FLAGS DCP    REM REPLAYGAIN_TRACK_GAIN -4.22 dB    REM REPLAYGAIN_TRACK_PEAK 0.966095    INDEX 00 04:10:31FILE "06 - Bulk Up Definition.flac" WAVE    INDEX 01 00:00:00  TRACK 07 AUDIO    TITLE "Fear No Man!"    PERFORMER "Muscle Kings of Mexico"    FLAGS DCP    REM REPLAYGAIN_TRACK_GAIN -7.82 dB    REM REPLAYGAIN_TRACK_PEAK 0.966187    INDEX 00 04:25:45FILE "07 - Fear No Man.flac" WAVE    INDEX 01 00:00:00  TRACK 08 AUDIO    TITLE "Adios Maria"    PERFORMER "Muscle Kings of Mexico"    FLAGS DCP    REM REPLAYGAIN_TRACK_GAIN -5.44 dB    REM REPLAYGAIN_TRACK_PEAK 0.966125    INDEX 00 07:11:41FILE "08 - Adios Maria.flac" WAVE    INDEX 01 00:00:00

Лог проверки качества

AUDIOCHECKER v2.0 beta (build 457) - by Dester - [email protected]~~~~~~~~~~~~~~~~~~~~~~~~~~~~~~~~~~-=== DO NOT EDIT THIS FILE! ===-
Path: ...\2012 F - Fear No Man
1 -=- 01 - Tiger Rough.flac -=- CDDA (100%)2 -=- 02 - Mr. America.flac -=- CDDA (85%)3 -=- 03 - Iron Master.flac -=- CDDA (87%)4 -=- 04 - Deadly Shuto Axe-Hand.flac -=- CDDA (92%)5 -=- 05 - Don't Be Mislead.flac -=- CDDA (100%)6 -=- 06 - Bulk Up Definition.flac -=- CDDA (100%)7 -=- 07 - Fear No Man.flac -=- CDDA (58%)8 -=- 08 - Adios Maria.flac -=- CDDA (92%)
Summary 89,25% CDDA
13100212

If you like the topic, please click share to help develop our site.

To download the file disable ad blocking, and reload the page.

disable adblock How to disable ad blocking?

Download by magnet link 191 MB Download Torrent

Login using:

Similar topics



   
Current time is: 23-Apr 20:58 :: All times are UTC + 3