The SideCats / Makin` Tracks
Жанр: Blues, Country, Swing
Носитель: CD
Страна-производитель диска (релиза): Canada
Год издания: 2010
Аудиокодек: FLAC (*.flac)
Тип рипа: image+.cue
Битрейт аудио: lossless
Продолжительность: 00:52:39
Источник (релизер): локальная сеть
Наличие сканов в содержимом раздачи: нет
Треклист:
1 Jack's Beanstalk 3:22
2 Before It's Over 4:22
3 River Of Dust 5:43
4 Blanket Of Love 2:40
5 Drop Of Water 4:16
6 I Believe 5:07
7 Say A Prayer 3:31
8 Cow Cat 4:14
9 Roll & Tumble 3:45
10 Beam Me Up 2:41
11 On The Other Side 3:38
12 Foolish Pride 3:51
13 Goin' Back To California 5:24

Лог создания рипа

Exact Audio Copy V1.0 beta 3 from 29. August 2011
EAC extraction logfile from 3. February 2013, 12:26
The SideCats / Makin' Tracks
Used drive : ASUS DRW-24B3ST Adapter: 2 ID: 1
Read mode : SecureUtilize accurate stream : YesDefeat audio cache : YesMake use of C2 pointers : No
Read offset correction : 6Overread into Lead-In and Lead-Out : NoFill up missing offset samples with silence : YesDelete leading and trailing silent blocks : NoNull samples used in CRC calculations : YesUsed interface : Installed external ASPI interface
Used output format : User Defined EncoderSelected bitrate : 1024 kBit/sQuality : HighAdd ID3 tag : NoCommand line compressor : C:\Program Files\Exact Audio Copy\FLAC\FLAC.EXEAdditional command line options : -8 -V -T "ARTIST=%artist%" -T "TITLE=%title%" -T "ALBUM=%albumtitle%" -T "DATE=%year%" -T "TRACKNUMBER=%tracknr%" -T "GENRE=%genre%" -T "COMMENT=%comment%" -T "BAND=%albuminterpret%" -T "ALBUMARTIST=%albuminterpret%" -T "COMPOSER=%composer%" %haslyrics%--tag-from-file=LYRICS="%lyricsfile%"%haslyrics% -T "DISCNUMBER=%cdnumber%" -T "TOTALDISCS=%totalcds%" -T "TOTALTRACKS=%numtracks%" %hascover%--picture="%coverfile%"%hascover% %source% -o %dest%
TOC of the extracted CD
Track | Start | Length | Start sector | End sector --------------------------------------------------------- 1 | 0:00.00 | 3:22.29 | 0 | 15178 2 | 3:22.29 | 4:22.22 | 15179 | 34850 3 | 7:44.51 | 5:43.35 | 34851 | 60610 4 | 13:28.11 | 2:40.09 | 60611 | 72619 5 | 16:08.20 | 4:16.64 | 72620 | 91883 6 | 20:25.09 | 5:07.27 | 91884 | 114935 7 | 25:32.36 | 3:31.34 | 114936 | 130794 8 | 29:03.70 | 4:14.62 | 130795 | 149906 9 | 33:18.57 | 3:45.13 | 149907 | 166794 10 | 37:03.70 | 2:41.34 | 166795 | 178903 11 | 39:45.29 | 3:38.44 | 178904 | 195297 12 | 43:23.73 | 3:51.33 | 195298 | 212655 13 | 47:15.31 | 5:24.23 | 212656 | 236978
Range status and errors
Selected range
Filename E:\My-rips\The SideCats-Makin Tracks-2010\The SideCats - Makin Tracks-2010.wav
Peak level 96.1 % Extraction speed 1.2 X Range quality 100.0 % Copy CRC F3021751 Copy OK
No errors occurred
AccurateRip summary
Track 1 not present in databaseTrack 2 not present in databaseTrack 3 not present in databaseTrack 4 not present in databaseTrack 5 not present in databaseTrack 6 not present in databaseTrack 7 not present in databaseTrack 8 not present in databaseTrack 9 not present in databaseTrack 10 not present in databaseTrack 11 not present in databaseTrack 12 not present in databaseTrack 13 not present in database
None of the tracks are present in the AccurateRip database
End of status report
==== Log checksum 2239D53685BF003D800D7B3221FB0CC4196731F93C8CBCF81EAF21A5266CECC4 ====

Содержание индексной карты (.CUE)

REM GENRE BluesREM DATE 2010REM DISCID 9D0C570DREM COMMENT "ExactAudioCopy v1.0b3"PERFORMER "The SideCats"TITLE "Makin' Tracks"FILE "The SideCats - Makin Tracks-2010.flac" WAVE  TRACK 01 AUDIO    TITLE "Jack's Beanstalk"    PERFORMER "The SideCats"    INDEX 01 00:00:00  TRACK 02 AUDIO    TITLE "Before It's Over"    PERFORMER "The SideCats"    INDEX 01 03:22:29  TRACK 03 AUDIO    TITLE "River Of Dust"    PERFORMER "The SideCats"    INDEX 01 07:44:51  TRACK 04 AUDIO    TITLE "Blanket Of Love"    PERFORMER "The SideCats"    INDEX 01 13:28:11  TRACK 05 AUDIO    TITLE "Drop Of Water"    PERFORMER "The SideCats"    INDEX 01 16:08:20  TRACK 06 AUDIO    TITLE "I Believe"    PERFORMER "The SideCats"    INDEX 01 20:25:09  TRACK 07 AUDIO    TITLE "Say A Prayer"    PERFORMER "The SideCats"    INDEX 01 25:32:36  TRACK 08 AUDIO    TITLE "Cow Cat"    PERFORMER "The SideCats"    INDEX 01 29:03:70  TRACK 09 AUDIO    TITLE "Roll and Tumble"    PERFORMER "The SideCats"    INDEX 01 33:18:57  TRACK 10 AUDIO    TITLE "Bean Me Up"    PERFORMER "The SideCats"    INDEX 01 37:03:70  TRACK 11 AUDIO    TITLE "On The Other Side"    PERFORMER "The SideCats"    INDEX 01 39:45:29  TRACK 12 AUDIO    TITLE "Foolish Pride"    PERFORMER "The SideCats"    INDEX 01 43:23:73  TRACK 13 AUDIO    TITLE "Goin' Back To California"    PERFORMER "The SideCats"    INDEX 01 47:15:31

If you like the topic, please click share to help develop our site.

To download the file disable ad blocking, and reload the page.

disable adblock How to disable ad blocking?

Download by magnet link 255 MB Download Torrent

Login using:

Similar topics

(Rock/Blues/Country) The Flashmen - Solid Rock - 2018, MP3, 320 kbps
 82 MB   0 | 0   08-Feb-19 14:35   2


   
Current time is: 17-Feb 17:48 :: All times are UTC + 3