Howard Wade / Leave the Blues Behind
Жанр: Blues, Acoustic
Носитель: CD
Страна-производитель диска (релиза): US
Год издания: 2012
Аудиокодек: FLAC (*.flac)
Тип рипа: image+.cue
Битрейт аудио: lossless
Продолжительность: 00:51:07
Источник (релизер): локальная сеть
Наличие сканов в содержимом раздачи: нет
Треклист:
1 Leave the Blues Behind
2 Last Go Round
3 I Just Can't Keep from Cryin'
4 Stumptown Rag
5 Without You
6 Spike Driver Blues/99 Year Blues
7 Shadows On the Wall
8 Crucifixion
9 Ring That Bell
10 Mississippi Blues
11 Old Country Rock
12 Trouble Down Here Below
13 Nine Pound Hammer
14 Hard Times Come Again No More

Лог создания рипа

Exact Audio Copy V1.0 beta 3 from 29. August 2011
EAC extraction logfile from 29. December 2012, 10:40
Howard Wade / Leave The Blues Behind
Used drive : ASUS DRW-24B3ST Adapter: 2 ID: 1
Read mode : SecureUtilize accurate stream : YesDefeat audio cache : YesMake use of C2 pointers : No
Read offset correction : 6Overread into Lead-In and Lead-Out : NoFill up missing offset samples with silence : YesDelete leading and trailing silent blocks : NoNull samples used in CRC calculations : YesUsed interface : Installed external ASPI interface
Used output format : User Defined EncoderSelected bitrate : 1024 kBit/sQuality : HighAdd ID3 tag : NoCommand line compressor : C:\Program Files\Exact Audio Copy\FLAC\FLAC.EXEAdditional command line options : -8 -V -T "ARTIST=%artist%" -T "TITLE=%title%" -T "ALBUM=%albumtitle%" -T "DATE=%year%" -T "TRACKNUMBER=%tracknr%" -T "GENRE=%genre%" -T "COMMENT=%comment%" -T "BAND=%albuminterpret%" -T "ALBUMARTIST=%albuminterpret%" -T "COMPOSER=%composer%" %haslyrics%--tag-from-file=LYRICS="%lyricsfile%"%haslyrics% -T "DISCNUMBER=%cdnumber%" -T "TOTALDISCS=%totalcds%" -T "TOTALTRACKS=%numtracks%" %hascover%--picture="%coverfile%"%hascover% %source% -o %dest%
TOC of the extracted CD
Track | Start | Length | Start sector | End sector --------------------------------------------------------- 1 | 0:00.00 | 3:49.37 | 0 | 17211 2 | 3:49.37 | 3:23.31 | 17212 | 32467 3 | 7:12.68 | 3:54.67 | 32468 | 50084 4 | 11:07.60 | 3:18.64 | 50085 | 64998 5 | 14:26.49 | 3:09.51 | 64999 | 79224 6 | 17:36.25 | 5:37.37 | 79225 | 104536 7 | 23:13.62 | 4:06.50 | 104537 | 123036 8 | 27:20.37 | 2:43.49 | 123037 | 135310 9 | 30:04.11 | 2:52.27 | 135311 | 148237 10 | 32:56.38 | 3:27.56 | 148238 | 163818 11 | 36:24.19 | 2:29.15 | 163819 | 175008 12 | 38:53.34 | 4:28.45 | 175009 | 195153 13 | 43:22.04 | 3:15.43 | 195154 | 209821 14 | 46:37.47 | 4:30.10 | 209822 | 230081
Range status and errors
Selected range
Filename E:\My-rips\Howard Wade-Leave the Blues Behind-2012\Howard Wade - Leave The Blues Behind.wav
Peak level 97.5 % Extraction speed 1.2 X Range quality 100.0 % Copy CRC 6637FF2F Copy OK
No errors occurred
AccurateRip summary
Track 1 not present in databaseTrack 2 not present in databaseTrack 3 not present in databaseTrack 4 not present in databaseTrack 5 not present in databaseTrack 6 not present in databaseTrack 7 not present in databaseTrack 8 not present in databaseTrack 9 not present in databaseTrack 10 not present in databaseTrack 11 not present in databaseTrack 12 not present in databaseTrack 13 not present in databaseTrack 14 not present in database
None of the tracks are present in the AccurateRip database
End of status report
==== Log checksum 757B3DCF4FB8D50794171E5D995EFBE80E1EE046B2E2D118C39C7B1B56F7435C ====

Содержание индексной карты (.CUE)

REM DISCID D80BFB0EREM COMMENT "ExactAudioCopy v1.0b3"PERFORMER "Howard Wade"TITLE "Leave The Blues Behind"FILE "Howard Wade - Leave The Blues Behind.flac" WAVE  TRACK 01 AUDIO    TITLE "Leave The Blues Behind"    PERFORMER "Howard Wade"    INDEX 01 00:00:00  TRACK 02 AUDIO    TITLE "Last Go Round"    PERFORMER "Howard Wade"    INDEX 00 03:47:12    INDEX 01 03:49:37  TRACK 03 AUDIO    TITLE "Just Can't Keep From Cryin'"    PERFORMER "Howard Wade"    INDEX 00 07:11:30    INDEX 01 07:12:68  TRACK 04 AUDIO    TITLE "Stumptown Rag"    PERFORMER "Howard Wade"    INDEX 00 11:05:64    INDEX 01 11:07:60  TRACK 05 AUDIO    TITLE "Without You"    PERFORMER "Howard Wade"    INDEX 00 14:25:33    INDEX 01 14:26:49  TRACK 06 AUDIO    TITLE "Spike Driver Blues - 99 Year Blues"    PERFORMER "Howard Wade"    INDEX 00 17:34:33    INDEX 01 17:36:25  TRACK 07 AUDIO    TITLE "Shadows on the Wall"    PERFORMER "Howard Wade"    INDEX 00 23:12:09    INDEX 01 23:13:62  TRACK 08 AUDIO    TITLE "Crucifixion"    PERFORMER "Howard Wade"    INDEX 00 27:19:06    INDEX 01 27:20:37  TRACK 09 AUDIO    TITLE "Ring That Bell"    PERFORMER "Howard Wade"    INDEX 00 30:03:01    INDEX 01 30:04:11  TRACK 10 AUDIO    TITLE "Mississippi Blues"    PERFORMER "Howard Wade"    INDEX 00 32:54:71    INDEX 01 32:56:38  TRACK 11 AUDIO    TITLE "Old Country Rock"    PERFORMER "Howard Wade"    INDEX 01 36:24:19  TRACK 12 AUDIO    TITLE "Trouble Down Here Below"    PERFORMER "Howard Wade"    INDEX 00 38:52:24    INDEX 01 38:53:34  TRACK 13 AUDIO    TITLE "Nine Pound Hammer"    PERFORMER "Howard Wade"    INDEX 00 43:20:52    INDEX 01 43:22:04  TRACK 14 AUDIO    TITLE "Hard Times Come Again No More"    PERFORMER "Howard Wade"    INDEX 00 46:36:25    INDEX 01 46:37:47

If you like the topic, please click share to help develop our site.

To download the file disable ad blocking, and reload the page.

disable adblock How to disable ad blocking?

Download by magnet link 249 MB Download Torrent

Login using:

Similar topics



   
Current time is: 21-Feb 20:46 :: All times are UTC + 3