Brian Fraser / Finger Pickin’ Blues
Жанр: Blues, Acoustic
Носитель: CD
Страна-производитель диска (релиза): US
Год издания: 2008
Издатель (лейбл): Black Market Music
Аудиокодек: FLAC (*.flac)
Тип рипа: image+.cue
Битрейт аудио: lossless
Продолжительность: 00:49:40
Источник (релизер): локальная сеть
Наличие сканов в содержимом раздачи: нет
Треклист:
1 Dot Com
2 Finger Pickin' Blues
3 Highly Strung
4 Half Way There
5 The Ship Song
6 Driftin' Blues
7 Take My Time
8 Every Game
9 Well's Station
10 Amazing Grace
11 Blood On the Ducati
12 Hat's Lament
13 No One's Allowed
14 Whispering Rain
15 10 O'clock Call
16 Writer's Curse

Лог создания рипа

Exact Audio Copy V1.0 beta 3 from 29. August 2011
EAC extraction logfile from 17. November 2012, 20:41
Brian Fraser / Finger Pickin' Blues
Used drive : ASUS DRW-24B3ST Adapter: 2 ID: 1
Read mode : SecureUtilize accurate stream : YesDefeat audio cache : YesMake use of C2 pointers : No
Read offset correction : 6Overread into Lead-In and Lead-Out : NoFill up missing offset samples with silence : YesDelete leading and trailing silent blocks : NoNull samples used in CRC calculations : YesUsed interface : Installed external ASPI interface
Used output format : User Defined EncoderSelected bitrate : 1024 kBit/sQuality : HighAdd ID3 tag : NoCommand line compressor : C:\Program Files\Exact Audio Copy\FLAC\FLAC.EXEAdditional command line options : -8 -V -T "ARTIST=%artist%" -T "TITLE=%title%" -T "ALBUM=%albumtitle%" -T "DATE=%year%" -T "TRACKNUMBER=%tracknr%" -T "GENRE=%genre%" -T "COMMENT=%comment%" -T "BAND=%albuminterpret%" -T "ALBUMARTIST=%albuminterpret%" -T "COMPOSER=%composer%" %haslyrics%--tag-from-file=LYRICS="%lyricsfile%"%haslyrics% -T "DISCNUMBER=%cdnumber%" -T "TOTALDISCS=%totalcds%" -T "TOTALTRACKS=%numtracks%" %hascover%--picture="%coverfile%"%hascover% %source% -o %dest%
TOC of the extracted CD
Track | Start | Length | Start sector | End sector --------------------------------------------------------- 1 | 0:00.00 | 2:25.37 | 0 | 10911 2 | 2:25.37 | 2:09.18 | 10912 | 20604 3 | 4:34.55 | 2:43.10 | 20605 | 32839 4 | 7:17.65 | 2:21.30 | 32840 | 43444 5 | 9:39.20 | 5:00.17 | 43445 | 65961 6 | 14:39.37 | 3:42.15 | 65962 | 82626 7 | 18:21.52 | 3:37.28 | 82627 | 98929 8 | 21:59.05 | 2:51.67 | 98930 | 111821 9 | 24:50.72 | 4:01.10 | 111822 | 129906 10 | 28:52.07 | 3:18.08 | 129907 | 144764 11 | 32:10.15 | 3:04.40 | 144765 | 158604 12 | 35:14.55 | 2:32.25 | 158605 | 170029 13 | 37:47.05 | 2:51.17 | 170030 | 182871 14 | 40:38.22 | 3:58.58 | 182872 | 200779 15 | 44:37.05 | 2:55.25 | 200780 | 213929 16 | 47:32.30 | 2:07.52 | 213930 | 223506
Range status and errors
Selected range
Filename E:\My-rips\Brian Fraser-Finger Pickin Blues-Black Market Music-2003\Brian Fraser - Finger Pickin' Blues.wav
Peak level 99.4 % Extraction speed 1.2 X Range quality 100.0 % Copy CRC 2D1F1357 Copy OK
No errors occurred
AccurateRip summary
Track 1 cannot be verified as accurate (confidence 1) [9F2CAA46], AccurateRip returned [0B842A18] (AR v2)Track 2 cannot be verified as accurate (confidence 1) [6BD60087], AccurateRip returned [14639C9A] (AR v2)Track 3 cannot be verified as accurate (confidence 1) [9E968847], AccurateRip returned [E51F7474] (AR v2)Track 4 cannot be verified as accurate (confidence 1) [319E8A8D], AccurateRip returned [CAD1C6B1] (AR v2)Track 5 cannot be verified as accurate (confidence 1) [EB7FAF4F], AccurateRip returned [87200E3B] (AR v2)Track 6 cannot be verified as accurate (confidence 1) [4B47C804], AccurateRip returned [EAC52C75] (AR v2)Track 7 cannot be verified as accurate (confidence 1) [B582BB75], AccurateRip returned [58FF089A] (AR v2)Track 8 cannot be verified as accurate (confidence 1) [7A4759B1], AccurateRip returned [E7AD3D75] (AR v2)Track 9 cannot be verified as accurate (confidence 1) [20552875], AccurateRip returned [F7BA6377] (AR v2)Track 10 cannot be verified as accurate (confidence 1) [9E001C6F], AccurateRip returned [B958F421] (AR v2)Track 11 cannot be verified as accurate (confidence 1) [3EE29935], AccurateRip returned [27DF469F] (AR v2)Track 12 cannot be verified as accurate (confidence 1) [865851CD], AccurateRip returned [467A9516] (AR v2)Track 13 cannot be verified as accurate (confidence 1) [30E5AD42], AccurateRip returned [2460698D] (AR v2)Track 14 cannot be verified as accurate (confidence 1) [CB7E4264], AccurateRip returned [7C8EFE01] (AR v2)Track 15 cannot be verified as accurate (confidence 1) [E2752051], AccurateRip returned [D85D5813] (AR v2)Track 16 cannot be verified as accurate (confidence 1) [8898E2D8], AccurateRip returned [DD84DF43] (AR v2)
No tracks could be verified as accurateYou may have a different pressing from the one(s) in the database
End of status report
==== Log checksum 85E25109D1B07BEF4FB1403ED2B6EDABF8EA192EF42B0DA0D7FD55E65D0DD59E ====

Содержание индексной карты (.CUE)

REM DATE 2003REM DISCID D80BA410REM COMMENT "ExactAudioCopy v1.0b3"PERFORMER "Brian Fraser"TITLE "Finger Pickin' Blues"FILE "Brian Fraser - Finger Pickin' Blues.flac" WAVE  TRACK 01 AUDIO    TITLE "dot com"    PERFORMER "Brian Fraser"    INDEX 01 00:00:00  TRACK 02 AUDIO    TITLE "finger pickin' blues"    PERFORMER "Brian Fraser"    INDEX 01 02:25:37  TRACK 03 AUDIO    TITLE "highly strung"    PERFORMER "Brian Fraser"    INDEX 01 04:34:55  TRACK 04 AUDIO    TITLE "half way there"    PERFORMER "Brian Fraser"    INDEX 01 07:17:65  TRACK 05 AUDIO    TITLE "the ship song"    PERFORMER "Brian Fraser"    INDEX 01 09:39:20  TRACK 06 AUDIO    TITLE "driftin' blues"    PERFORMER "Brian Fraser"    INDEX 01 14:39:37  TRACK 07 AUDIO    TITLE "take my time"    PERFORMER "Brian Fraser"    INDEX 01 18:21:52  TRACK 08 AUDIO    TITLE "every game"    PERFORMER "Brian Fraser"    INDEX 01 21:59:05  TRACK 09 AUDIO    TITLE "well's station"    PERFORMER "Brian Fraser"    INDEX 01 24:50:72  TRACK 10 AUDIO    TITLE "amazing grace"    PERFORMER "Brian Fraser"    INDEX 01 28:52:07  TRACK 11 AUDIO    TITLE "blood on the ducati"    PERFORMER "Brian Fraser"    INDEX 01 32:10:15  TRACK 12 AUDIO    TITLE "hat's lament"    PERFORMER "Brian Fraser"    INDEX 01 35:14:55  TRACK 13 AUDIO    TITLE "no one's allowed"    PERFORMER "Brian Fraser"    INDEX 01 37:47:05  TRACK 14 AUDIO    TITLE "whispering rain"    PERFORMER "Brian Fraser"    INDEX 01 40:38:22  TRACK 15 AUDIO    TITLE "10 o'clock call"    PERFORMER "Brian Fraser"    INDEX 01 44:37:05  TRACK 16 AUDIO    TITLE "writers curse"    PERFORMER "Brian Fraser"    INDEX 01 47:32:30

If you like the topic, please click share to help develop our site.

To download the file disable ad blocking, and reload the page.

disable adblock How to disable ad blocking?

Download by magnet link 284 MB Download Torrent

Login using:

Similar topics



   
Current time is: 26-Apr 15:09 :: All times are UTC + 3