Big Daddy Wilson / Songs From The Road
Жанр: Blues/Soul
Носитель: CD
Страна-производитель диска (релиза): EU
Год издания: 2018
Издатель (лейбл): Ruf Records
Номер по каталогу: RUF 1247
Аудиокодек: FLAC (*.flac)
Тип рипа: image+.cue
Битрейт аудио: lossless
Продолжительность: 77 m 19 s
Источник (релизер): Собственный рип с оригинального диска
Наличие сканов в содержимом раздачи: да
Треклист:
01. Wake Up (03:16)
02. Drop Down Here (06:43)
03. Miss Dorothy Lee (05:47)
04. Texas Boogie (09:57)
05. Ain't No Slave (07:50)
06. Anna Mae (06:38)
07. Walk A Mile In My Shoes (10:22)
08. Cross Creek Road (03:39)
09. Neckbone Stew (05:40)
10. 7 Years (04:48)
11. Baby Don't Like (09:20)
12. I Just Need A Smile (03:12)

Лог создания рипа

Exact Audio Copy V1.1 from 23. June 2015
EAC extraction logfile from 25. August 2018, 22:23
Big Daddy Wilson / Songs From The Road
Used drive : Optiarc DVD RW AD-7240S Adapter: 1 ID: 0
Read mode : SecureUtilize accurate stream : YesDefeat audio cache : YesMake use of C2 pointers : No
Read offset correction : 48Overread into Lead-In and Lead-Out : NoFill up missing offset samples with silence : YesDelete leading and trailing silent blocks : NoNull samples used in CRC calculations : YesUsed interface : Native Win32 interface for Win NT & 2000
Used output format : User Defined EncoderSelected bitrate : 896 kBit/sQuality : HighAdd ID3 tag : NoCommand line compressor : C:\Program Files (x86)\Exact Audio Copy\Flac\flac.exeAdditional command line options : -V -8 -T "Date=%year%" -T "Genre=%genre%" %source%
TOC of the extracted CD
Track | Start | Length | Start sector | End sector --------------------------------------------------------- 1 | 0:00.00 | 3:17.26 | 0 | 14800 2 | 3:17.26 | 6:42.67 | 14801 | 45017 3 | 10:00.18 | 5:47.34 | 45018 | 71076 4 | 15:47.52 | 9:56.71 | 71077 | 115847 5 | 25:44.48 | 7:50.02 | 115848 | 151099 6 | 33:34.50 | 6:38.35 | 151100 | 180984 7 | 40:13.10 | 10:22.56 | 180985 | 227690 8 | 50:35.66 | 3:39.18 | 227691 | 244133 9 | 54:15.09 | 5:40.32 | 244134 | 269665 10 | 59:55.41 | 4:48.63 | 269666 | 291328 11 | 64:44.29 | 9:20.51 | 291329 | 333379 12 | 74:05.05 | 3:14.19 | 333380 | 347948
Range status and errors
Selected range
Filename D:\My Music Archive_D\__My Rips\Big Daddy Wilson - Songs From The Road\Big Daddy Wilson - Songs From The Road.wav
Peak level 93.3 % Extraction speed 4.5 X Range quality 100.0 % Test CRC 6921D872 Copy CRC 6921D872 Copy OK
No errors occurred
AccurateRip summary
Track 1 not present in databaseTrack 2 not present in databaseTrack 3 not present in databaseTrack 4 not present in databaseTrack 5 not present in databaseTrack 6 not present in databaseTrack 7 not present in databaseTrack 8 not present in databaseTrack 9 not present in databaseTrack 10 not present in databaseTrack 11 not present in databaseTrack 12 not present in database
None of the tracks are present in the AccurateRip database
End of status report
==== Log checksum 1B8782EF5B1C9CD0C09E64307D4EB92B87D61A3B28A77910E62DC8624BFEBC9C ====

Об альбоме (сборнике)

Big Daddy Wilson (USA)
No matter where Big Daddy Wilson travels on this big, beautiful, mixed-up planet of ours, he takes the South with him.
For more than two decades, he has been carrying his message of hope and unity to each and every show, whether in New York, Paris, Auckland or – in the case of his new live album Songs From The Road – the village of Rubigen in central Switzerland.
The concert recorded at the Mühle Hunziken exemplifies Wilson's uncanny ability to connect with an audience. The key ingredients are honesty, his natural charisma and the sheer power of his voice. This performance from the fall of 2017 is a testament to just how far the American ex-pat and former soldier has come since answering a newspaper ad and summoning the courage to sing "Stormy Monday" for a group of young German blues musicians way back in the 1980s. He's ably supported by a tight and versatile four-piece unit comprising Cesare "Smokestack" Nolli (g), Paolo Legramandi (b), Nik Taccori (dr) and Enzo Messina (k). "I tried to give my listener a small view of the journey, the good, the bad, the highs and the lows," explains Wilson in the liner notes to the album. As usual with the long-running Songs From The Road series, there are visuals as well. The accompanying DVD in the two-disc set includes 15 songs in all and offers a good long look at Big Daddy Wilson in action.
Songs From The Road delivers some pretty strong evidence to the contrary. And yet, in a certain way, he's right. Wilson's music – like Wilson himself – is real. It's honest. At no point is this man ever putting on a show. "I’m just interested in singing, getting my message out and feeling the people – and hoping I can make them feel me."
DVD раздается здесь.

If you like the topic, please click share to help develop our site.

To download the file disable ad blocking, and reload the page.

disable adblock How to disable ad blocking?

Download by magnet link 500 MB Download Torrent

Login using:

Similar topics



   
Current time is: 17-Feb 17:50 :: All times are UTC + 3