Mojo Juju

Native Tongue





• Жанр: Blues | Cabaret | Swing
• Носитель: WEB
• Год издания: 2018
• Издатель Australian Broadcasting Corp (ABC)
• Страна исполнителя : Australia
• Аудиокодек: FLAC (*.flac)
• Тип рипа: tracks
• Продолжительность: 00:56:10
• Источник (спасибо): NBMus
• WEB релиз: 7digital
• Наличие сканов: front

01 - Native Tongue (feat. Pasefika Vitoria Choir) (00:03:49)
02 - Papa (Tagalog Interlude) (00:00:34)
03 - Something Wrong (feat. Mirrah) (00:03:11)
04 - Think Twice (00:03:40)
05 - Bound To (00:03:26)
06 - Cold Condition (feat. Joshua Tavares) (00:05:02)
07 - Shut Your Mouth (00:03:21)
08 - Never Again (00:03:10)
09 - I Just Wanna Know (00:03:59)
10 - Pidge (Jackie Interlude) (00:00:47)
11 - Far Too Late (00:03:27)
12 - 1000 Years (00:06:18)
13 - History (00:04:31)
14 - Hurricane (00:04:11)
15 - Don't Stop Me Now (00:05:00)
16 - Native Tongue Reprise (feat. Lay The Mystic) (00:01:39)

-
-

• Замер динамического диапазона •

foobar2000 1.3.17 / Замер динамического диапазона (DR) 1.1.1Дата отчёта:  2018-08-27 19:32:42
--------------------------------------------------------------------------------Анализ: Mojo Juju / Native Tongue--------------------------------------------------------------------------------
DR Пики RMS Продолжительность трека--------------------------------------------------------------------------------DR9 -1.08 дБ -12.85 дБ 3:49 01-Native Tongue (feat. Pasefika Vitoria Choir)DR14 -2.87 дБ -22.86 дБ 0:34 02-Papá (Tagalog Interlude)DR8 -1.02 дБ -11.32 дБ 3:12 03-Something Wrong (feat. Mirrah)DR6 -1.02 дБ -9.95 дБ 3:40 04-Think TwiceDR6 -1.05 дБ -10.20 дБ 3:26 05-Bound ToDR8 -1.06 дБ -11.28 дБ 5:02 06-Cold Condition (feat. Joshua Tavares)DR7 -1.00 дБ -10.10 дБ 3:22 07-Shut Your MouthDR9 -0.92 дБ -10.77 дБ 3:10 08-Never AgainDR7 -1.02 дБ -10.39 дБ 3:59 09-I Just Wanna KnowDR15 -3.89 дБ -23.35 дБ 0:47 10-Pidge (Jackie Interlude)DR8 -0.99 дБ -10.33 дБ 3:28 11-Far Too LateDR8 -1.08 дБ -10.90 дБ 6:18 12-1000 YearsDR8 -1.00 дБ -12.97 дБ 4:32 13-HistoryDR7 -1.08 дБ -10.25 дБ 4:12 14-HurricaneDR8 -1.09 дБ -10.55 дБ 5:01 15-Don't Stop Me NowDR10 -1.17 дБ -15.69 дБ 1:40 16-Native Tongue Reprise (feat. Lay The Mystic)--------------------------------------------------------------------------------
Количество треков: 16Реальные значения DR: DR9
Частота: 44100 ГцКаналов: 2Разрядность: 16Битрейт: 567 кбит/сКодек: FLAC================================================================================
-

• Лог проверки качества •

-----------------------
DON'T MODIFY THIS FILE
-----------------------
PERFORMER: auCDtect Task Manager, ver. 1.6.0 RC1 build 1.6.0.1Copyright (c) 2008-2010 y-soft. All rights reservedhttp://y-soft.org
ANALYZER: auCDtect: CD records authenticity detector, version 0.8.2Copyright (c) 2004 Oleg Berngardt. All rights reserved.Copyright (c) 2004 Alexander Djourik. All rights reserved.
FILE: 16 - Native Tongue Reprise (feat. Lay The Mystic).flac Size: 7320804 Hash: 09EADB4796FC30435822D4BFE16E44EB Accuracy: -m0 Conclusion: CDDA 99% Signature: D9EC175A7EB12159B170B1E8CE8883DABBD8690AFILE: 15 - Don't Stop Me Now.flac Size: 29808102 Hash: E72AD5B24AC04B53829E6A6C8F206A0C Accuracy: -m0 Conclusion: CDDA 100% Signature: 6F7A314B1EAB0A21D083920163BA09BF251DD1B8FILE: 14 - Hurricane.flac Size: 26892755 Hash: 864E4FAD976F08773935120197E54F07 Accuracy: -m0 Conclusion: CDDA 100% Signature: E95412BEA4CEB360D8061B81C713A7B9CF7BA1B9FILE: 13 - History.flac Size: 26973887 Hash: 6FDE1C5C86B296039DC11090BCB16EC7 Accuracy: -m0 Conclusion: CDDA 100% Signature: 281ED407159F65E884393E6824C6CCB41A62C391FILE: 12 - 1000 Years.flac Size: 30722374 Hash: 20DDF0661951C1A469FA86EA561328F3 Accuracy: -m0 Conclusion: CDDA 100% Signature: 1ECB32CDA9306887F40D276D7328F08706739EC0FILE: 11 - Far Too Late.flac Size: 23199073 Hash: E3232586A61A766F085DA2A8C69B7C20 Accuracy: -m0 Conclusion: CDDA 100% Signature: F156920E13EB0900838DBE8ED4A37BDB4F90345BFILE: 10 - Pidge (Jackie Interlude).flac Size: 3772746 Hash: D7AD7BAF88037B946CF0AC6892C8B9AC Accuracy: -m0 Conclusion: CDDA 100% Signature: 130AEB370C74D9B5F7080E430E593F58731E4BE2FILE: 09 - I Just Wanna Know.flac Size: 26610207 Hash: 5A81BC2F96D28BC5BFD5A7141E830F85 Accuracy: -m0 Conclusion: CDDA 100% Signature: BE4CB0CBF0C9F1F07704D66F15D16A06501789DAFILE: 08 - Never Again.flac Size: 23088514 Hash: E1F7CBEDF3B87F52C1D05BD86D9F1F85 Accuracy: -m0 Conclusion: CDDA 100% Signature: 4A4DF6450F404E57E192F2454EB8BA68CB3517D7FILE: 07 - Shut Your Mouth.flac Size: 23929422 Hash: 7A791B3E2C4E2A8D95C0E8BCC47EB186 Accuracy: -m0 Conclusion: CDDA 100% Signature: 7DD7E2BB9F6C41CC3082415A1AE6EBA85D19F945FILE: 06 - Cold Condition (feat. Joshua Tavares).flac Size: 30477421 Hash: 70AB8D6A7C04A6E75A6A998BC8483363 Accuracy: -m0 Conclusion: CDDA 100% Signature: 064FDE668EDE917CE7EA8AA29FC60B5227A791F7FILE: 05 - Bound To.flac Size: 21171914 Hash: A360B23030A98F16E644700C3B4996C9 Accuracy: -m0 Conclusion: CDDA 100% Signature: 486AA538DA5B6FCD04671CFAA236994B0D48D79CFILE: 04 - Think Twice.flac Size: 26366856 Hash: 2B0DD88EF15396169C6B9D7C2EBAB30D Accuracy: -m0 Conclusion: CDDA 100% Signature: 6DB03446EE857C9C4096B3057DA67371F5CF2DD0FILE: 03 - Something Wrong (feat. Mirrah).flac Size: 22624245 Hash: 731BAF12FF69EF202EB9754AA4C011AC Accuracy: -m0 Conclusion: CDDA 100% Signature: 325C94636FF6E4367CDE1233C7CDD00EA09EB7C4FILE: 02 - Papa (Tagalog Interlude).flac Size: 2967984 Hash: A0E02AF32EBF2C49A3166B17BD2BDFB4 Accuracy: -m0 Conclusion: MPEG 100% Signature: 9FA0772AC65C3667926EDC18A17C19D1FC7A8881FILE: 01 - Native Tongue (feat. Pasefika Vitoria Choir).flac Size: 24205740 Hash: 1247FD1763A39243A2563081919F54BA Accuracy: -m0 Conclusion: CDDA 100% Signature: 81FA931DD8EEA43D03D0F6EE872BDFCBF0734343
-

• Скриншот подозрительных спектров •


If you like the topic, please click share to help develop our site.

To download the file disable ad blocking, and reload the page.

disable adblock How to disable ad blocking?

Download by magnet link 334 MB Download Torrent

Login using:

Similar topics



   
Current time is: 17-Feb 16:38 :: All times are UTC + 3