Irma ThomasThe Story Of My Life -
Жанр: new orleans blues, louisiana blues, soul
Страна-производитель диска: USA
Год издания: 1997
Издатель (лейбл): Rounder
Номер по каталогу: CD 2149
Страна: USA
Аудиокодек: FLAC (*.flac)
Тип рипа: image+.cue
Битрейт аудио: lossless
Продолжительность: 43'49"
Источник (релизер): собственный диск
Наличие сканов в содержимом раздачи: 600dpi, JPG
-Треклист:


01 - No Use Talkin'
02 - The Story Of My Life
03 - I Count The Teardrops
04 - Cried Too Long
05 - Love Don't Get No Better Than This
06 - Hold Me While I Cry
07 - I Won't Cry For You
08 - We All Need Love
09 - Get Here
10 - Keep The Faith
11 - Dr. Feelgood
-

eac

Exact Audio Copy V1.0 beta 6 from 9. April 2015
EAC extraction logfile from 26. August 2018, 23:23
Irma Thomas / The Story Of My Life
Used drive : TEAC CD-W548E Adapter: 1 ID: 0
Read mode : SecureUtilize accurate stream : YesDefeat audio cache : YesMake use of C2 pointers : No
Read offset correction : 12Overread into Lead-In and Lead-Out : NoFill up missing offset samples with silence : YesDelete leading and trailing silent blocks : NoNull samples used in CRC calculations : YesUsed interface : Installed external ASPI interface
Used output format : User Defined EncoderSelected bitrate : 320 kBit/sQuality : HighAdd ID3 tag : NoCommand line compressor : C:\Program Files\Exact Audio Copy 1.b6\Exact Audio Copy\Flac\flac.exeAdditional command line options : -V -8 -T "Genre=%genre%" -T "Artist=%artist%" -T "Title=%title%" -T "Album=%albumtitle%" -T "Date=%year%" -T "Tracknumber=%tracknr%" -T "Comment=%comment%" %source%
TOC of the extracted CD
Track | Start | Length | Start sector | End sector --------------------------------------------------------- 1 | 0:00.00 | 3:27.12 | 0 | 15536 2 | 3:27.12 | 4:39.30 | 15537 | 36491 3 | 8:06.42 | 3:32.33 | 36492 | 52424 4 | 11:39.00 | 4:37.35 | 52425 | 73234 5 | 16:16.35 | 3:32.67 | 73235 | 89201 6 | 19:49.27 | 3:27.73 | 89202 | 104799 7 | 23:17.25 | 2:58.72 | 104800 | 118221 8 | 26:16.22 | 3:13.60 | 118222 | 132756 9 | 29:30.07 | 5:07.53 | 132757 | 155834 10 | 34:37.60 | 4:26.30 | 155835 | 175814 11 | 39:04.15 | 4:44.25 | 175815 | 197139
Range status and errors
Selected range
Filename L:\Audio\SWF\CD\Irma Thomas\1997. Irma Thomas - The Story Of My Life (1997 Rounder, CD 2149, USA)\Irma Thomas - The Story Of My Life.wav
Peak level 100.0 % Extraction speed 5.4 X Range quality 100.0 % Test CRC A80F7E82 Copy CRC A80F7E82 Copy OK
No errors occurred
AccurateRip summary
Track 1 accurately ripped (confidence 3) [6E45EC3F] (AR v2)Track 2 accurately ripped (confidence 3) [11C22516] (AR v2)Track 3 accurately ripped (confidence 3) [173265EF] (AR v2)Track 4 accurately ripped (confidence 3) [8E455DE2] (AR v2)Track 5 accurately ripped (confidence 3) [B88F46A5] (AR v2)Track 6 accurately ripped (confidence 3) [15FF347A] (AR v2)Track 7 accurately ripped (confidence 3) [2401F5FD] (AR v2)Track 8 accurately ripped (confidence 3) [D44F4116] (AR v2)Track 9 accurately ripped (confidence 3) [12FC0CFE] (AR v2)Track 10 accurately ripped (confidence 3) [8968D6F4] (AR v2)Track 11 accurately ripped (confidence 3) [028BA4C1] (AR v2)
All tracks accurately ripped
End of status report
---- CUETools DB Plugin V2.1.6
[CTDB TOCID: 7LOCl2w8ROS.6dXrhpl_PRe8Gu4-] foundSubmit result: 7LOCl2w8ROS.6dXrhpl_PRe8Gu4- has been confirmedTrack | CTDB Status 1 | (8/8) Accurately ripped 2 | (8/8) Accurately ripped 3 | (8/8) Accurately ripped 4 | (8/8) Accurately ripped 5 | (8/8) Accurately ripped 6 | (8/8) Accurately ripped 7 | (8/8) Accurately ripped 8 | (8/8) Accurately ripped 9 | (8/8) Accurately ripped 10 | (8/8) Accurately ripped 11 | (8/8) Accurately ripped
==== Log checksum 6C394C68F5913D24CAFAB9E0DE1EB8C7642F1DF2369E0B0A9F1771F50844BBAA ====
-

.cue

REM GENRE bluesREM DATE 1997REM DISCID AA0A440BREM COMMENT "ExactAudioCopy v1.0b6"CATALOG 0000000000000PERFORMER "Irma Thomas"TITLE "The Story Of My Life"FILE "Irma Thomas - The Story Of My Life.flac" WAVE  TRACK 01 AUDIO    TITLE "No Use Talkin'"    PERFORMER "Irma Thomas"    ISRC USRO29714901    INDEX 01 00:00:00  TRACK 02 AUDIO    TITLE "The Story Of My Life"    PERFORMER "Irma Thomas"    ISRC USRO29714902    INDEX 01 03:27:12  TRACK 03 AUDIO    TITLE "I Count The Teardrops"    PERFORMER "Irma Thomas"    ISRC USRO29714903    INDEX 01 08:06:42  TRACK 04 AUDIO    TITLE "Cried Too Long"    PERFORMER "Irma Thomas"    ISRC USRO29714904    INDEX 01 11:39:00  TRACK 05 AUDIO    TITLE "Love Don't Get No Better Than This"    PERFORMER "Irma Thomas"    ISRC USRO29714905    INDEX 01 16:16:35  TRACK 06 AUDIO    TITLE "Hold Me While I Cry"    PERFORMER "Irma Thomas"    ISRC USRO29714906    INDEX 01 19:49:27  TRACK 07 AUDIO    TITLE "I Won't Cry For You"    PERFORMER "Irma Thomas"    ISRC USRO29714907    INDEX 01 23:17:25  TRACK 08 AUDIO    TITLE "We All Need Love"    PERFORMER "Irma Thomas"    ISRC USRO29714908    INDEX 01 26:16:22  TRACK 09 AUDIO    TITLE "Get Here"    PERFORMER "Irma Thomas"    ISRC USRO29714909    INDEX 01 29:30:07  TRACK 10 AUDIO    TITLE "Keep The Faith"    PERFORMER "Irma Thomas"    ISRC USRO29714910    INDEX 01 34:37:60  TRACK 11 AUDIO    TITLE "Dr. Feelgood"    PERFORMER "Irma Thomas"    ISRC USRO29714910    INDEX 01 39:04:15
-

matrix

-

If you like the topic, please click share to help develop our site.

To download the file disable ad blocking, and reload the page.

disable adblock How to disable ad blocking?

Download by magnet link 382 MB Download Torrent

Login using:

Similar topics

(New Orleans Blues) Kirk Nelson - Collectibles - 2018, MP3, 320 kbps
 101 MB   0 | 0   08-Feb-19 14:35   0


   
Current time is: 21-Jul 16:22 :: All times are UTC + 3