Lonnie BrooksSatisfaction Guaranteed -
Жанр: modern electric blues, chicago blues, swamp blues
Страна-производитель диска: USA
Год издания: 1995
Издатель (лейбл): Alligator
Номер по каталогу: ALCD 4799
Страна: USA
Аудиокодек: FLAC (*.flac)
Тип рипа: image+.cue
Битрейт аудио: lossless
Продолжительность: 58'42"
Источник (релизер): собственный диск
Наличие сканов в содержимом раздачи: 600dpi, JPG
-Треклист:


01. Temporary Insanity - 3:40
02. A Man's Got To To What A Man's Got To Do - 4:04
03. Feast or Famine - 4:28
04. It's Lying Time Again - 5:38
05. A Little Rock And Roll And Some Country Blues - 4:31
06. Wife For Tonight - 5:17
07. Family Curse - 4:37
08. Horoscope - 3:57
09. Like Father, Like Son - 5:49
10. Holding On To The Memories - 5:53
11. Accident - 4:39
12. If The Price Is Right - 6:12
-

eac

Exact Audio Copy V1.0 beta 6 from 9. April 2015
EAC extraction logfile from 26. August 2018, 23:02
Lonnie Brooks / Satisfaction Guaranteed
Used drive : TEAC CD-W548E Adapter: 1 ID: 0
Read mode : SecureUtilize accurate stream : YesDefeat audio cache : YesMake use of C2 pointers : No
Read offset correction : 12Overread into Lead-In and Lead-Out : NoFill up missing offset samples with silence : YesDelete leading and trailing silent blocks : NoNull samples used in CRC calculations : YesUsed interface : Installed external ASPI interface
Used output format : User Defined EncoderSelected bitrate : 320 kBit/sQuality : HighAdd ID3 tag : NoCommand line compressor : C:\Program Files\Exact Audio Copy 1.b6\Exact Audio Copy\Flac\flac.exeAdditional command line options : -V -8 -T "Genre=%genre%" -T "Artist=%artist%" -T "Title=%title%" -T "Album=%albumtitle%" -T "Date=%year%" -T "Tracknumber=%tracknr%" -T "Comment=%comment%" %source%
TOC of the extracted CD
Track | Start | Length | Start sector | End sector --------------------------------------------------------- 1 | 0:00.00 | 3:40.10 | 0 | 16509 2 | 3:40.10 | 4:03.50 | 16510 | 34784 3 | 7:43.60 | 4:28.32 | 34785 | 54916 4 | 12:12.17 | 5:38.13 | 54917 | 80279 5 | 17:50.30 | 4:30.72 | 80280 | 100601 6 | 22:21.27 | 5:17.33 | 100602 | 124409 7 | 27:38.60 | 4:37.22 | 124410 | 145206 8 | 32:16.07 | 3:56.58 | 145207 | 162964 9 | 36:12.65 | 5:48.47 | 162965 | 189111 10 | 42:01.37 | 5:52.53 | 189112 | 215564 11 | 47:54.15 | 4:38.45 | 215565 | 236459 12 | 52:32.60 | 6:12.10 | 236460 | 264369
Range status and errors
Selected range
Filename L:\Audio\SWF\CD\Lonnie Brooks\1991. Lonnie Brooks - Satisfaction Guaranteed (Alligator, ALCD 4799, USA)\Lonnie Brooks - Satisfaction Guaranteed.wav
Peak level 98.2 % Extraction speed 8.6 X Range quality 100.0 % Test CRC 218051B0 Copy CRC 218051B0 Copy OK
No errors occurred
AccurateRip summary
Track 1 accurately ripped (confidence 13) [4100D058] (AR v2)Track 2 accurately ripped (confidence 13) [AD6E3DDE] (AR v2)Track 3 accurately ripped (confidence 14) [85EF67FC] (AR v2)Track 4 accurately ripped (confidence 14) [85D0B784] (AR v2)Track 5 accurately ripped (confidence 14) [5FB90832] (AR v2)Track 6 accurately ripped (confidence 14) [9039C191] (AR v2)Track 7 accurately ripped (confidence 14) [F4CE02C0] (AR v2)Track 8 accurately ripped (confidence 14) [7F521D1D] (AR v2)Track 9 accurately ripped (confidence 14) [E8E385CB] (AR v2)Track 10 accurately ripped (confidence 13) [10BA780D] (AR v2)Track 11 accurately ripped (confidence 13) [A67C630B] (AR v2)Track 12 accurately ripped (confidence 13) [811666C4] (AR v2)
All tracks accurately ripped
End of status report
---- CUETools DB Plugin V2.1.6
[CTDB TOCID: FT4DDaIavd3LTdtpXnUargqUgJU-] foundSubmit result: FT4DDaIavd3LTdtpXnUargqUgJU- has been confirmedTrack | CTDB Status 1 | (19/19) Accurately ripped 2 | (19/19) Accurately ripped 3 | (19/19) Accurately ripped 4 | (19/19) Accurately ripped 5 | (19/19) Accurately ripped 6 | (19/19) Accurately ripped 7 | (19/19) Accurately ripped 8 | (19/19) Accurately ripped 9 | (19/19) Accurately ripped 10 | (19/19) Accurately ripped 11 | (19/19) Accurately ripped 12 | (19/19) Accurately ripped
==== Log checksum 583A44B6560FB9D91045A489A6C7C268B2A3C2CC267D8C50780DDDF0250A3C7E ====
-

.cue

REM GENRE BluesREM DATE 1991REM DISCID 9A0DC40CREM COMMENT "ExactAudioCopy v1.0b6"PERFORMER "Lonnie Brooks"TITLE "Satisfaction Guaranteed"FILE "Lonnie Brooks - Satisfaction Guaranteed.flac" WAVE  TRACK 01 AUDIO    TITLE "Temporary Insanity"    PERFORMER "Lonnie Brooks"    INDEX 01 00:00:00  TRACK 02 AUDIO    TITLE "A Man's Got to to What a Man's Got to Do"    PERFORMER "Lonnie Brooks"    INDEX 01 03:40:10  TRACK 03 AUDIO    TITLE "Feast or Famine"    PERFORMER "Lonnie Brooks"    INDEX 01 07:43:60  TRACK 04 AUDIO    TITLE "It's Lying Time Again"    PERFORMER "Lonnie Brooks"    INDEX 01 12:12:17  TRACK 05 AUDIO    TITLE "A Little Rock and Roll and Some Country Blues"    PERFORMER "Lonnie Brooks"    INDEX 01 17:50:30  TRACK 06 AUDIO    TITLE "Wife for Tonight"    PERFORMER "Lonnie Brooks"    INDEX 01 22:21:27  TRACK 07 AUDIO    TITLE "Family Curse"    PERFORMER "Lonnie Brooks"    INDEX 00 27:38:25    INDEX 01 27:38:60  TRACK 08 AUDIO    TITLE "Horoscope"    PERFORMER "Lonnie Brooks"    INDEX 00 32:15:20    INDEX 01 32:16:07  TRACK 09 AUDIO    TITLE "Like Father, Like Son"    PERFORMER "Lonnie Brooks"    INDEX 00 36:12:37    INDEX 01 36:12:65  TRACK 10 AUDIO    TITLE "Holding on to the Memories"    PERFORMER "Lonnie Brooks"    INDEX 00 42:00:07    INDEX 01 42:01:37  TRACK 11 AUDIO    TITLE "Accident"    PERFORMER "Lonnie Brooks"    INDEX 00 47:53:65    INDEX 01 47:54:15  TRACK 12 AUDIO    TITLE "If the Price Is Right"    PERFORMER "Lonnie Brooks"    INDEX 00 52:32:57    INDEX 01 52:32:60
-

matrix

-

Каталог 'Alligator Records' (ссылки на альбомы)-

If you like the topic, please click share to help develop our site.

To download the file disable ad blocking, and reload the page.

disable adblock How to disable ad blocking?

Download by magnet link 423 MB Download Torrent

Login using:

Similar topics



   
Current time is: 17-Feb 16:26 :: All times are UTC + 3