Deák "Bill" Gyula (Deak "Bill" Gyula) / Rossz vér (Rossz ver)
Жанр: Blues-Rock
Носитель: CD
Страна-производитель диска (релиза): Hungary
Год издания: 1984 (1995)
Издатель (лейбл): HCD
Номер по каталогу: 17836
Страна исполнителя (группы): Hungary
Аудиокодек: FLAC (*.flac)
Тип рипа: image+.cue
Битрейт аудио: lossless
Продолжительность: 00:38:05
Источник (релизер): собственный рип
Наличие сканов в содержимом раздачи: нет

01. Rossz ver (7:47)
02. Orulj meg, Kicsi! (4:42)
03. Ne szeress engem! (5:24)
04. Mindenem a teve (4:22)
05. A felszarvazottak balladaja (4:06)
06. Kozepeuropai hobo blues III. (6:28)
07. Ez a helyzet (5:05)

Лог создания рипа

Exact Audio Copy V1.3 from 2. September 2016
EAC extraction logfile from 28. August 2018, 18:21
Deak "Bill" Gyula / Rossz ver
Used drive : PIONEER BD-RW BDR-209D Adapter: 1 ID: 1
Read mode : SecureUtilize accurate stream : YesDefeat audio cache : YesMake use of C2 pointers : No
Read offset correction : 667Overread into Lead-In and Lead-Out : NoFill up missing offset samples with silence : YesDelete leading and trailing silent blocks : NoNull samples used in CRC calculations : YesUsed interface : Native Win32 interface for Win NT & 2000
Used output format : User Defined EncoderSelected bitrate : 1024 kBit/sQuality : HighAdd ID3 tag : NoCommand line compressor : C:\Program Files (x86)\Exact Audio Copy\FLAC\FLAC.EXEAdditional command line options : -6 -V -T "ARTIST=%artist%" -T "TITLE=%title%" -T "ALBUM=%albumtitle%" -T "DATE=%year%" -T "TRACKNUMBER=%tracknr%" -T "GENRE=%genre%" -T "COMMENT=%comment%" -T "BAND=%albuminterpret%" -T "ALBUMARTIST=%albuminterpret%" -T "COMPOSER=%composer%" %haslyrics%--tag-from-file=LYRICS="%lyricsfile%"%haslyrics% -T "DISCNUMBER=%cdnumber%" -T "TOTALDISCS=%totalcds%" -T "TOTALTRACKS=%numtracks%" %hascover%--picture="%coverfile%"%hascover% %source% -o %dest%
TOC of the extracted CD
Track | Start | Length | Start sector | End sector --------------------------------------------------------- 1 | 0:00.00 | 7:49.10 | 0 | 35184 2 | 7:49.10 | 4:44.22 | 35185 | 56506 3 | 12:33.32 | 5:26.05 | 56507 | 80961 4 | 17:59.37 | 4:24.10 | 80962 | 100771 5 | 22:23.47 | 4:07.70 | 100772 | 119366 6 | 26:31.42 | 6:29.73 | 119367 | 148614 7 | 33:01.40 | 5:04.52 | 148615 | 171466
Range status and errors
Selected range
Filename F:\Deak ''Bill'' Gyula - Rossz ver.wav
Peak level 96.6 % Extraction speed 4.3 X Range quality 100.0 % Test CRC E87BAE9B Copy CRC E87BAE9B Copy OK
No errors occurred
End of status report
---- CUETools DB Plugin V2.1.6
[CTDB TOCID: _DONyS69lLuQCgutdxZsINd1X.g-] disk not present in databaseSubmit result: _DONyS69lLuQCgutdxZsINd1X.g- has been uploaded
==== Log checksum 6459780BD0DAD0A2979A5DDFC9566E979B82C9C8199FDC1BD4318CEA0E523C8A ====

Об исполнителе (группе)

A Rossz vér Deák Bill Gyula bluesénekes 1984-ben megjelent első nagylemeze.
A kőbányai Sztár együttesben külföldi dalok éneklésével kezdte. Később mint jazzénekes a Napsugár, a Wanderers és a Loyd együttes tagja.
1979-1985-ig a Hobo Blues Band tagja volt, ezután szólópályára lépett.
Megalapította a Bill és a Box Company-t Bencsik Sándorral, a P. Mobil és a P. Box egykori tagjával.
1984-ben Rossz vér címmel jelent meg első szólólemeze.

Об альбоме (сборнике)

Az első Deák Bill szólólemezt egy Hobo Blues Band lemeznek is tekinthetnénk, hiszen az akkori H.B.B. felállás készítette.
Az albumon ma már olyan örökzöld szerzemények hallhatóak, mint a „Felszarvazottak balladája”, vagy a címadó szerzemény, amelyeket mind a mai napig játszanak a koncerteken.
Földes László (Hobo) két dalban is közreműködik a lemezen, az egyik a már említett „Felszarvazottak balladája”, a másik pedig az album zárószerzeménye az „Ez a helyzet”.
A klasszikus rock és blues dalok közül, egyedül a „Ne szeress engem!” című darab lóg ki, amit a lemez művészeti vezetője Presser Gábor írt. A Presser - Dusán szerzemény erőteljes billentyűs befolyást mutat.
Érdekesség képen megemlítendő, hogy a dalban vendégeskedik, a Ki Mit Tud? győztes jazz énekesnő Falusi Mariann is.
A többi dal szerzője Póka Egon, Tátrai Tibor – Földes László, Deák Bill Gyula.
Összességében elmondható, hogy a Rossz vér című album, mind a zene, mind a szövegek tekintetében, egy tökéletes lemez, amely a szocializmusban élő „kisember” bús siralmait örökíti meg.

If you like the topic, please click share to help develop our site.

To download the file disable ad blocking, and reload the page.

disable adblock How to disable ad blocking?

Download by magnet link 234 MB Download Torrent

Login using:

Similar topics



   
Current time is: 21-Feb 20:36 :: All times are UTC + 3