Omega / Trans-And-Dance
Жанр: Hungarian rock
Носитель: CD
Страна-производитель диска (релиза): Hungary
Год издания: 1995
Издатель (лейбл): Mega
Номер по каталогу: HCD 37772 (94/M-140)
Страна исполнителя (группы): Hungary
Аудиокодек: FLAC (*.flac)
Тип рипа: image+.cue
Битрейт аудио: lossless
Продолжительность: 00:57:17
Источник (релизер): WiktorMVV
Наличие сканов в содержимом раздачи: да
Треклист:
Omega - Trans-And-Dance
01. Nyitany [01:55]
02. Egi Harangok [0:05:41.29]
03. Az Almodozo [07:04]
04. Minden Konnycseppert Kar [06:46]
05. Level - Poste Restante [04:01]
06. Yeshiva Eneke [03:21]
07. Csillaglany [03:38]
08. Bibor Hajnal [04:49]
09. A Rock-And-Roll Nem Hagy El [04:17]
10. Egi Szerelem [05:00]
11. Miss World [04:55]
12. A Kereszt-Ut Vege [05:45]

Лог создания рипа

Exact Audio Copy V1.0 beta 3 from 29. August 2011
Отчёт EAC об извлечении, выполненном 1. сентября 2018, 12:29
Omega / Trans-And-Dance
Дисковод: Optiarc DVD RW AD-7280S Adapter: 1 ID: 0
Режим чтения : ДостоверностьИспользование точного потока : ДаОтключение кэша аудио : ДаИспользование указателей C2 : Нет
Коррекция смещения при чтении : 48Способность читать области Lead-in и Lead-out : НетЗаполнение пропущенных сэмплов тишиной : ДаУдаление блоков с тишиной в начале и конце : НетПри вычислениях CRC использовались нулевые сэмплы : ДаИнтерфейс : Встроенный Win32-интерфейс для Win NT/2000
Выходной формат : Пользовательский кодировщикВыбранный битрейт : 768 kBit/sКачество : ВысокийДобавление ID3-тега : НетУтилита сжатия : C:\Program Files (x86)\Exact Audio Copy\FLAC\FLAC.EXEДополнительные параметры : -8 -V -T "ARTIST=%artist%" -T "TITLE=%title%" -T "ALBUM=%albumtitle%" -T "DATE=%year%" -T "TRACKNUMBER=%tracknr%" -T "GENRE=%genre%" -T "COMMENT=%comment%" -T "BAND=%albuminterpret%" -T "ALBUMARTIST=%albuminterpret%" -T "COMPOSER=%composer%" %haslyrics%--tag-from-file=LYRICS="%lyricsfile%"%haslyrics% -T "DISCNUMBER=%cdnumber%" -T "TOTALDISCS=%totalcds%" -T "TOTALTRACKS=%numtracks%" %hascover%--picture="%coverfile%"%hascover% %source% -o %dest%
TOC извлечённого CD
Трек | Старт | Длительность | Начальный сектор | Конечный сектор --------------------------------------------------------------------- 1 | 0:00.00 | 1:55.02 | 0 | 8626 2 | 1:55.02 | 5:41.29 | 8627 | 34230 3 | 7:36.31 | 7:04.17 | 34231 | 66047 4 | 14:40.48 | 6:46.17 | 66048 | 96514 5 | 21:26.65 | 4:01.46 | 96515 | 114635 6 | 25:28.36 | 3:21.47 | 114636 | 129757 7 | 28:50.08 | 3:38.50 | 129758 | 146157 8 | 32:28.58 | 4:49.23 | 146158 | 167855 9 | 37:18.06 | 4:17.09 | 167856 | 187139 10 | 41:35.15 | 5:00.10 | 187140 | 209649 11 | 46:35.25 | 4:55.53 | 209650 | 231827 12 | 51:31.03 | 5:45.63 | 231828 | 257765
Характеристики диапазона извлечения и сообщения об ошибках
Выбранный диапазон
Имя файла D:\РАЗДАЧИ\Omega-Trans-And-Dance (1995)\Omega - Trans-And-Dance.wav
Пиковый уровень 97.7 % Скорость извлечения 3.1 X Качество диапазона 99.9 % CRC теста 54519443 CRC копии 54519443 Копирование... OK
Ошибок не произошло
AccurateRip: сводка
Трек 1 отсутствует в базе данныхТрек 2 отсутствует в базе данныхТрек 3 отсутствует в базе данныхТрек 4 отсутствует в базе данныхТрек 5 отсутствует в базе данныхТрек 6 отсутствует в базе данныхТрек 7 отсутствует в базе данныхТрек 8 отсутствует в базе данныхТрек 9 отсутствует в базе данныхТрек 10 отсутствует в базе данныхТрек 11 отсутствует в базе данныхТрек 12 отсутствует в базе данных
Ни одного трека нет в базе AccurateRip
Конец отчёта
==== Контрольная сумма отчёта B2F1B63BB9862E7156599AAD3B320F61D3E3ADB90469A575F8DA2484674C32DE ====

If you like the topic, please click share to help develop our site.

To download the file disable ad blocking, and reload the page.

disable adblock How to disable ad blocking?

Download by magnet link 405 MB Download Torrent

Login using:

Similar topics



   
Current time is: 22-Apr 09:37 :: All times are UTC + 3