Невидимка / In Darkness
Страна: Великобритания, США
Жанр: Триллер
Год выпуска: 2018
Продолжительность: 01:41:41
Перевод 1: Профессиональный (дублированный) iTunes
Перевод 2: Любительский (многоголосый закадровый) HDrezka Studio
Перевод 3: Одноголосый закадровый А. Важенин - BadBajo
Субтитры: Русские, английские
Оригинальная аудиодорожка: Английский
Режиссер: Энтони Бирн / Anthony Byrne
В ролях: Натали Дормер, Эмили Ратаковски, Эд Скрейн, Джоэли Ричардсон, Джеймс Космо, Нил Мэскелл, Эмбер Андерсон, Ян Бейвут, Бернард Коллако
Описание: «Девушка в темноте», как называют слепую Софию, становится невольным свидетелем убийства дочери опасного международного преступника. Но несмотря на слепоту, София не так беззащитна, как считают мафия и спецслужбы.В субтитрах ненормативная лексика, не много Тип релиза: BDRemux 1080p
Контейнер: MKV
Видео: MPEG-4 AVC, 1080p, 1920:1080, 30.0 Mb/s, 23.976 fps
Аудио 1: АС3, 6 ch, 48 kHz, 384 kbps Русский Dub iTunes
Аудио 2: АС3, 2 ch, 48 kHz, 192 kbps Русский MVO HDrezka Studio
Аудио 3: АС3, 6 ch, 48 kHz, 448 kbps Русский VO BadBajo
Аудио 4: DTS-HD MA, 6 ch, 48 kHz, 3328 kbps, 24-bit (DTS Core 6 ch, 48 kHz, 768 kbps) Английский
Формат субтитров: SRT

MediaInfo

GeneralUnique ID                                : 92919406747337307020480924406607510431 (0x45E7A0751BDE680D787483379A57FB9F)Complete name                            : G:\ФИЛЬМЫ\********\In.Darkness.2018.REMUX.mkvFormat                                   : MatroskaFormat version                           : Version 4 / Version 2File size                                : 24.4 GiBDuration                                 : 1 h 41 minOverall bit rate mode                    : VariableOverall bit rate                         : 34.3 Mb/sEncoded date                             : UTC 2018-09-01 10:01:05Writing application                      : mkvmerge v20.0.0 ('I Am The Sun') 64-bitWriting library                          : libebml v1.3.5 + libmatroska v1.4.8
VideoID : 1Format : AVCFormat/Info : Advanced Video CodecFormat profile : [email protected] settings : CABAC / 3 Ref FramesFormat settings, CABAC : YesFormat settings, RefFrames : 3 framesFormat settings, GOP : M=4, N=24Codec ID : V_MPEG4/ISO/AVCDuration : 1 h 41 minBit rate mode : VariableBit rate : 30.0 Mb/sMaximum bit rate : 32.0 Mb/sWidth : 1 920 pixelsHeight : 1 080 pixelsDisplay aspect ratio : 16:9Frame rate mode : ConstantFrame rate : 23.976 (24000/1001) FPSStandard : NTSCColor space : YUVChroma subsampling : 4:2:0Bit depth : 8 bitsScan type : ProgressiveBits/(Pixel*Frame) : 0.603Stream size : 21.3 GiB (87%)Language : EnglishDefault : YesForced : NoColor range : LimitedColor primaries : BT.709Transfer characteristics : BT.709Matrix coefficients : BT.709
Audio #1ID : 2Format : AC-3Format/Info : Audio Coding 3Codec ID : A_AC3Duration : 1 h 41 minBit rate mode : ConstantBit rate : 384 kb/sChannel(s) : 6 channelsChannel positions : Front: L C R, Side: L R, LFESampling rate : 48.0 kHzFrame rate : 31.250 FPS (1536 SPF)Bit depth : 16 bitsCompression mode : LossyDelay relative to video : 3 msStream size : 279 MiB (1%)Title : iTunesLanguage : RussianService kind : Complete MainDefault : YesForced : No
Audio #2ID : 3Format : AC-3Format/Info : Audio Coding 3Codec ID : A_AC3Duration : 1 h 41 minBit rate mode : ConstantBit rate : 192 kb/sChannel(s) : 2 channelsChannel positions : Front: L RSampling rate : 48.0 kHzFrame rate : 31.250 FPS (1536 SPF)Bit depth : 16 bitsCompression mode : LossyStream size : 140 MiB (1%)Title : HDrezkaLanguage : RussianService kind : Complete MainDefault : NoForced : No
Audio #3ID : 4Format : AC-3Format/Info : Audio Coding 3Codec ID : A_AC3Duration : 1 h 41 minBit rate mode : ConstantBit rate : 448 kb/sChannel(s) : 6 channelsChannel positions : Front: L C R, Side: L R, LFESampling rate : 48.0 kHzFrame rate : 31.250 FPS (1536 SPF)Bit depth : 16 bitsCompression mode : LossyStream size : 326 MiB (1%)Title : BadBajoLanguage : RussianService kind : Complete MainDefault : NoForced : No
Audio #4ID : 5Format : DTSFormat/Info : Digital Theater SystemsFormat profile : MA / CoreCodec ID : A_DTSDuration : 1 h 41 minBit rate mode : Variable / ConstantBit rate : 3 328 kb/s / 768 kb/sChannel(s) : 6 channelsChannel positions : Front: L C R, Side: L R, LFESampling rate : 48.0 kHzFrame rate : 93.750 FPS (512 SPF)Bit depth : 24 bitsCompression mode : Lossless / LossyDelay relative to video : 3 msStream size : 2.36 GiB (10%)Language : EnglishDefault : NoForced : No
Text #1ID : 6Format : UTF-8Codec ID : S_TEXT/UTF8Codec ID/Info : UTF-8 Plain TextDuration : 1 h 33 minBit rate : 64 b/sCount of elements : 827Stream size : 44.2 KiB (0%)Language : RussianDefault : NoForced : No
Text #2ID : 7Format : UTF-8Codec ID : S_TEXT/UTF8Codec ID/Info : UTF-8 Plain TextDuration : 1 h 33 minBit rate : 38 b/sCount of elements : 839Stream size : 26.5 KiB (0%)Language : EnglishDefault : NoForced : No
Menu00:00:00.000 : en:Chapter 100:06:30.139 : en:Chapter 200:12:33.461 : en:Chapter 300:17:43.562 : en:Chapter 400:23:38.250 : en:Chapter 500:28:46.641 : en:Chapter 600:36:22.722 : en:Chapter 700:42:06.357 : en:Chapter 800:48:10.012 : en:Chapter 900:54:41.861 : en:Chapter 1000:59:12.298 : en:Chapter 1101:05:19.707 : en:Chapter 1201:09:29.665 : en:Chapter 1301:16:00.764 : en:Chapter 1401:22:38.370 : en:Chapter 1501:27:33.456 : en:Chapter 16

Скриншоты

Перезалит, исправлены субтитры

If you like the topic, please click share to help develop our site.

To download the file disable ad blocking, and reload the page.

disable adblock How to disable ad blocking?

Download by magnet link 24.39 GB Download Torrent

Login using:

Similar topics

Невидимка / In Darkness (2018) WEB-DL 1080p | HDrezka Studio
 4.38 GB   16 | 0   02-Jun-18 12:30   0
Невидимка / In Darkness (2018) WEBRip 720p | BadBajo
 2.11 GB   5 | 0   26-May-18 16:30   0


   
Current time is: 18-Jul 09:38 :: All times are UTC + 3