Племя радуги / The Rainbow Tribe / Teczowy Oboz
Страна: Чехия, США
Студия: International Production Company
Жанр: комедия, семейный
Год выпуска: 2008
Продолжительность: 01:29:23
Перевод: Профессиональный (двухголосый закадровый)
Субтитры: нет
Оригинальная аудиодорожка: английский
Режиссер: Кристофер Р. Уотсон / Christopher R. Watson
В ролях: Дэвид Джеймс Эллиотт, Грэйсон Расселл, Ной Манк, Макс Буркхолдер, Тейлор Богган, Зак Богган, Далтон О’Делл, Эйдан Гулд, Эд Куинн, Джули Энн Эмери, Ребекка Мэдер, Гэбриел Манн, Стивен Тоболовски
Описание: После очередного приступа, больной раком мужчина решает отправиться вожатым в летний лагерь своего детства, надеясь, что это поможет ему найти силы для продолжения борьбы за жизнь. Закадычный друг - начальник лагеря - "подсовывает" ему самых проблемных детей, от которых отказались другие воспитатели...
Кинопоиск - IMDb
Sample
Тип релиза: WEB-DL 1080p
Контейнер: MKV
Видео: MPEG4 AVC Video, H264, 1918x1080, 23.976 fps, 4716 Kbps
Аудио: Russian (AC3, 2 ch, 192 kbps, 16 bits, 48.0 KHz) - DVO
Аудио 2: English (AC3, 6 ch, 384 kbps, 16 bits, 48.0 KHz) - оригинал

MediaInfo

General
Unique ID : 182774042073664239241801387317880550685 (0x898100047F867021A557CC22B649F51D)
Complete name : J:\The Rainbow Tribe 2008 WEB-DL 1080p.mkv
Format : Matroska
Format version : Version 4 / Version 2
File size : 3.37 GiB
Duration : 1 h 29 min
Overall bit rate : 5 400 kb/s
Encoded date : UTC 2018-08-31 21:07:39
Writing application : mkvmerge v6.1.0 ('Old Devil') built on Mar 2 2013 14:32:37
Writing library : libebml v1.3.0 + libmatroska v1.4.0
Video
ID : 1
Format : AVC
Format/Info : Advanced Video Codec
Format profile : [email protected]
Format settings : CABAC / 4 Ref Frames
Format settings, CABAC : Yes
Format settings, ReFrames : 4 frames
Format settings, GOP : N=2
Codec ID : V_MPEG4/ISO/AVC
Duration : 1 h 29 min
Bit rate : 4 716 kb/s
Width : 1 918 pixels
Height : 1 080 pixels
Display aspect ratio : 16:9
Frame rate mode : Constant
Frame rate : 23.976 FPS
Color space : YUV
Chroma subsampling : 4:2:0
Bit depth : 8 bits
Scan type : Progressive
Bits/(Pixel*Frame) : 0.095
Stream size : 2.94 GiB (87%)
Language : English
Default : Yes
Forced : No
Color range : Limited
Color primaries : BT.709
Transfer characteristics : BT.709
Matrix coefficients : BT.709
Audio #1
ID : 2
Format : AC-3
Format/Info : Audio Coding 3
Codec ID : A_AC3
Duration : 1 h 29 min
Bit rate mode : Constant
Bit rate : 192 kb/s
Channel(s) : 2 channels
Channel positions : Front: L R
Sampling rate : 48.0 kHz
Frame rate : 31.250 FPS (1536 SPF)
Bit depth : 16 bits
Compression mode : Lossy
Stream size : 123 MiB (4%)
Language : Russian
Service kind : Complete Main
Default : Yes
Forced : No
Audio #2
ID : 3
Format : AC-3
Format/Info : Audio Coding 3
Codec ID : A_AC3
Duration : 1 h 29 min
Bit rate mode : Constant
Bit rate : 384 kb/s
Channel(s) : 6 channels
Channel positions : Front: L C R, Side: L R, LFE
Sampling rate : 48.0 kHz
Frame rate : 31.250 FPS (1536 SPF)
Bit depth : 16 bits
Compression mode : Lossy
Stream size : 246 MiB (7%)
Language : English
Service kind : Complete Main
Default : No
Forced : No

Скриншоты




If you like the topic, please click share to help develop our site.

To download the file disable ad blocking, and reload the page.

disable adblock How to disable ad blocking?

Download by magnet link 3.37 GB Download Torrent

Login using:

Similar topics



   
Current time is: 18-Jul 11:43 :: All times are UTC + 3