Алекс Стрейнджлав / Странная любовь Алекса / Alex Strangelove
Страна: США
Студия: Mighty Engine, Red Hour Films, STX Entertainment
Жанр: драма, комедия
Год выпуска: 2018
Продолжительность: 01:39:40
Перевод: Профессиональный (многоголосый закадровый) Jaskier
Субтитры: русские (Men In Sub), английские
Оригинальная аудиодорожка: английский
Режиссер: Крэйг Джонсон / Craig Johnson
В ролях: Айден Майэри, Уильям Рэгсдэйл, Мадлен Вайнштейн, Антонио Марциале, Изабелла Амара, Джоэнна Адлер, Дэниэл Доэни, Дэниэл Золгадри, Энни Цянь, Ник Додани
Описание: Старшеклассник Алекс Трулав — отличник, президент класса и со всех сторон идеальный ученик. Он встречается с очаровательной Клэр, и впереди у него светлое будущее. Но всё меняется, когда он знакомится с харизматичным Эллиотом, который заставляет Алекса задуматься о собственной сексуальной ориентации.
Доп. информация: Внимание!!! В озвучке и в русских субтитрах встречается ненормативная лексика!!!
Кинопоиск - IMDb
Sample
Тип релиза: WEB-DL 1080p - NTb
Контейнер: MKV
Видео: MPEG4 AVC Video, H264, 1920x800, 23.976 fps, 10.9 Mbps
Аудио: Russian (AC3, 6 ch, 384 kbps, 16 bits, 48.0 KHz) - MVO
Аудио 2: English (AC3, 6 ch, 384 kbps, 16 bits, 48.0 KHz) - оригинал
Формат субтитров: softsub (SRT)

MediaInfo

General
Unique ID : 176245843833671635418724509769781088240 (0x8497B6FE8775C2419ECBABED37420FF0)
Complete name : J:\Alex Strangelove 2018 WEB-DL 1080p.mkv
Format : Matroska
Format version : Version 4 / Version 2
File size : 8.27 GiB
Duration : 1 h 39 min
Overall bit rate : 11.9 Mb/s
Encoded date : UTC 2018-08-31 22:52:05
Writing application : mkvmerge v6.1.0 ('Old Devil') built on Mar 2 2013 14:32:37
Writing library : libebml v1.3.0 + libmatroska v1.4.0
Video
ID : 1
Format : AVC
Format/Info : Advanced Video Codec
Format profile : [email protected]
Format settings : CABAC / 5 Ref Frames
Format settings, CABAC : Yes
Format settings, ReFrames : 5 frames
Codec ID : V_MPEG4/ISO/AVC
Duration : 1 h 39 min
Bit rate : 10.9 Mb/s
Width : 1 920 pixels
Height : 800 pixels
Display aspect ratio : 2.40:1
Frame rate mode : Constant
Frame rate : 23.976 (24000/1001) FPS
Color space : YUV
Chroma subsampling : 4:2:0
Bit depth : 8 bits
Scan type : Progressive
Bits/(Pixel*Frame) : 0.295
Stream size : 7.57 GiB (92%)
Writing library : x264 core 152 r2851kMod ba24899
Encoding settings : cabac=1 / ref=5 / deblock=1:-3:-3 / analyse=0x3:0x133 / me=umh / subme=10 / psy=1 / fade_compensate=0.00 / psy_rd=1.00:0.00 / mixed_ref=1 / me_range=48 / chroma_me=1 / trellis=2 / 8x8dct=1 / cqm=0 / deadzone=21,11 / fast_pskip=0 / chroma_qp_offset=-2 / threads=12 / lookahead_threads=2 / sliced_threads=0 / nr=0 / decimate=0 / interlaced=0 / bluray_compat=0 / constrained_intra=0 / bframes=8 / b_pyramid=2 / b_adapt=2 / b_bias=0 / direct=3 / weightb=1 / open_gop=0 / weightp=2 / keyint=250 / keyint_min=23 / scenecut=40 / intra_refresh=0 / rc=crf / mbtree=0 / crf=18.0000 / qcomp=0.60 / qpmin=0 / qpmax=69 / qpstep=4 / ip_ratio=1.30 / pb_ratio=1.20 / aq=3:0.80
Language : English
Default : Yes
Forced : No
Audio #1
ID : 2
Format : AC-3
Format/Info : Audio Coding 3
Codec ID : A_AC3
Duration : 1 h 39 min
Bit rate mode : Constant
Bit rate : 384 kb/s
Channel(s) : 6 channels
Channel positions : Front: L C R, Side: L R, LFE
Sampling rate : 48.0 kHz
Frame rate : 31.250 FPS (1536 SPF)
Bit depth : 16 bits
Compression mode : Lossy
Stream size : 274 MiB (3%)
Language : Russian
Service kind : Complete Main
Default : Yes
Forced : No
Audio #2
ID : 3
Format : AC-3
Format/Info : Audio Coding 3
Codec ID : A_AC3
Duration : 1 h 39 min
Bit rate mode : Constant
Bit rate : 384 kb/s
Channel(s) : 6 channels
Channel positions : Front: L C R, Side: L R, LFE
Sampling rate : 48.0 kHz
Frame rate : 31.250 FPS (1536 SPF)
Bit depth : 16 bits
Compression mode : Lossy
Stream size : 274 MiB (3%)
Language : English
Service kind : Complete Main
Default : No
Forced : No
Text #1
ID : 4
Format : UTF-8
Codec ID : S_TEXT/UTF8
Codec ID/Info : UTF-8 Plain Text
Language : Russian
Default : No
Forced : No
Text #2
ID : 5
Format : UTF-8
Codec ID : S_TEXT/UTF8
Codec ID/Info : UTF-8 Plain Text
Language : English
Default : No
Forced : No

Скриншоты




If you like the topic, please click share to help develop our site.

To download the file disable ad blocking, and reload the page.

disable adblock How to disable ad blocking?

Download by magnet link 8.27 GB Download Torrent

Login using:

Similar topics



   
Current time is: 21-Feb 21:02 :: All times are UTC + 3