- Ariel Pocock - Touchstone (2015) Justin Time Records - Жанр: Vocal Jazz
Издание: Justin Time Records - JTR 8592-2
Продолжительность: 01:03:26
Кодек: FLAC (tracks+.cue)
Битрейт: Lossless
Источник (релизер): Zelou
Страна-производитель диска: Canada
Наличие сканов в содержимом раздачи: нет
Треклист:
01. Exactly Like You [3:57]
02. Devil May Care [6:41]
03. Real Emotional Girl [4:19]
04. Barrel Roll [7:05]
05. Country [5:02]
06. You Can Close Your Eyes [4:25]
07. Ugly Beauty/Still We Dream [5:02]
08. All the Things You Are [5:39]
09. When I Fall in Love [5:00]
10. Rainbow Sleeves [5:22]
11. Mother Stands for Comfort [6:22]
12. Touchstone [4:30]

Отчёт EAC:

Exact Audio Copy V1.3 from 2. September 2016
EAC extraction logfile from 22. July 2017, 18:45
Ariel Pocock / Touchstone
Used drive : ATAPI DVD A DH16AAL Adapter: 1 ID: 0
Read mode : Secure
Utilize accurate stream : Yes
Defeat audio cache : Yes
Make use of C2 pointers : No
Read offset correction : 6
Overread into Lead-In and Lead-Out : No
Fill up missing offset samples with silence : Yes
Delete leading and trailing silent blocks : No
Null samples used in CRC calculations : Yes
Used interface : Native Win32 interface for Win NT & 2000
Gap handling : Appended to previous track
Used output format : User Defined Encoder
Selected bitrate : 1024 kBit/s
Quality : High
Add ID3 tag : No
Command line compressor : C:\Program Files (x86)\Exact Audio Copy\Flac\flac.exe
Additional command line options : -8 -e -p -V -T "ARTIST=%artist%" -T "TITLE=%title%" -T "ALBUM=%albumtitle%" -T "DATE=%year%" -T "TRACKNUMBER=%tracknr%" -T "GENRE=%genre%" -T "PERFORMER=%albuminterpret%" -T "COMPOSER=%composer%" %haslyrics%--tag-from-file=LYRICS="%lyricsfile%"%haslyrics% -T "ALBUMARTIST=%albumartist%" -T "DISCNUMBER=%cdnumber%" -T "TOTALDISCS=%totalcds%" -T "TOTALTRACKS=%numtracks%" -T "COMMENT=%comment%" %source% -o %dest%
TOC of the extracted CD
Track | Start | Length | Start sector | End sector
---------------------------------------------------------
1 | 0:00.00 | 3:57.29 | 0 | 17803
2 | 3:57.29 | 6:41.30 | 17804 | 47908
3 | 10:38.59 | 4:19.02 | 47909 | 67335
4 | 14:57.61 | 7:05.30 | 67336 | 99240
5 | 22:03.16 | 5:02.14 | 99241 | 121904
6 | 27:05.30 | 4:24.73 | 121905 | 141777
7 | 31:30.28 | 5:01.70 | 141778 | 164422
8 | 36:32.23 | 5:39.15 | 164423 | 189862
9 | 42:11.38 | 5:00.05 | 189863 | 212367
10 | 47:11.43 | 5:21.67 | 212368 | 236509
11 | 52:33.35 | 6:22.34 | 236510 | 265193
12 | 58:55.69 | 4:29.70 | 265194 | 285438
Track 1
Filename C:\Zelou\EAC Rips\Ariel Pocock - Touchstone (2013) [FLAC] {JTR8592-2}\01 - Exactly Like You.wav
Pre-gap length 0:00:02.00
Peak level 99.1 %
Extraction speed 1.3 X
Track quality 99.9 %
Test CRC F6603BCC
Copy CRC F6603BCC
Accurately ripped (confidence 5) [DB8010F2] (AR v2)
Copy OK
Track 2
Filename C:\Zelou\EAC Rips\Ariel Pocock - Touchstone (2013) [FLAC] {JTR8592-2}\02 - Devil May Care.wav
Peak level 98.5 %
Extraction speed 1.8 X
Track quality 99.9 %
Test CRC DBC0D726
Copy CRC DBC0D726
Accurately ripped (confidence 5) [1D7BAD8E] (AR v2)
Copy OK
Track 3
Filename C:\Zelou\EAC Rips\Ariel Pocock - Touchstone (2013) [FLAC] {JTR8592-2}\03 - Real Emotional Girl.wav
Peak level 97.6 %
Extraction speed 2.3 X
Track quality 100.0 %
Test CRC AA79C418
Copy CRC AA79C418
Accurately ripped (confidence 5) [CE1188A8] (AR v2)
Copy OK
Track 4
Filename C:\Zelou\EAC Rips\Ariel Pocock - Touchstone (2013) [FLAC] {JTR8592-2}\04 - Barrel Roll.wav
Pre-gap length 0:00:01.72
Peak level 98.3 %
Extraction speed 2.7 X
Track quality 100.0 %
Test CRC 9EBF970C
Copy CRC 9EBF970C
Accurately ripped (confidence 5) [1FDDEB55] (AR v2)
Copy OK
Track 5
Filename C:\Zelou\EAC Rips\Ariel Pocock - Touchstone (2013) [FLAC] {JTR8592-2}\05 - Country.wav
Pre-gap length 0:00:01.22
Peak level 97.6 %
Extraction speed 2.8 X
Track quality 100.0 %
Test CRC 0E32854B
Copy CRC 0E32854B
Accurately ripped (confidence 5) [B0003049] (AR v2)
Copy OK
Track 6
Filename C:\Zelou\EAC Rips\Ariel Pocock - Touchstone (2013) [FLAC] {JTR8592-2}\06 - You Can Close Your Eyes.wav
Pre-gap length 0:00:01.66
Peak level 97.5 %
Extraction speed 2.9 X
Track quality 100.0 %
Test CRC 7A9FDFBB
Copy CRC 7A9FDFBB
Accurately ripped (confidence 5) [CC91A15B] (AR v2)
Copy OK
Track 7
Filename C:\Zelou\EAC Rips\Ariel Pocock - Touchstone (2013) [FLAC] {JTR8592-2}\07 - Ugly Beauty,Still We Dream.wav
Pre-gap length 0:00:00.90
Peak level 98.4 %
Extraction speed 3.1 X
Track quality 100.0 %
Test CRC E7F4DAF0
Copy CRC E7F4DAF0
Accurately ripped (confidence 5) [E72E32C8] (AR v2)
Copy OK
Track 8
Filename C:\Zelou\EAC Rips\Ariel Pocock - Touchstone (2013) [FLAC] {JTR8592-2}\08 - All The Things You Are.wav
Peak level 97.6 %
Extraction speed 3.3 X
Track quality 100.0 %
Test CRC F7FA7FF4
Copy CRC F7FA7FF4
Accurately ripped (confidence 5) [0706992B] (AR v2)
Copy OK
Track 9
Filename C:\Zelou\EAC Rips\Ariel Pocock - Touchstone (2013) [FLAC] {JTR8592-2}\09 - When I Fall In Love.wav
Pre-gap length 0:00:00.64
Peak level 97.4 %
Extraction speed 3.4 X
Track quality 100.0 %
Test CRC B88C2AAE
Copy CRC B88C2AAE
Accurately ripped (confidence 5) [D2822293] (AR v2)
Copy OK
Track 10
Filename C:\Zelou\EAC Rips\Ariel Pocock - Touchstone (2013) [FLAC] {JTR8592-2}\10 - Rainbow Sleeves.wav
Pre-gap length 0:00:02.13
Peak level 97.3 %
Extraction speed 3.6 X
Track quality 100.0 %
Test CRC DA12015C
Copy CRC DA12015C
Accurately ripped (confidence 5) [6CEC123B] (AR v2)
Copy OK
Track 11
Filename C:\Zelou\EAC Rips\Ariel Pocock - Touchstone (2013) [FLAC] {JTR8592-2}\11 - Mother Stands For Comfort.wav
Pre-gap length 0:00:01.22
Peak level 99.5 %
Extraction speed 3.0 X
Track quality 99.9 %
Test CRC 307AB8A2
Copy CRC 307AB8A2
Accurately ripped (confidence 5) [37962532] (AR v2)
Copy OK
Track 12
Filename C:\Zelou\EAC Rips\Ariel Pocock - Touchstone (2013) [FLAC] {JTR8592-2}\12 - Touchstone.wav
Pre-gap length 0:00:03.45
Peak level 79.8 %
Extraction speed 2.8 X
Track quality 99.9 %
Test CRC E582C288
Copy CRC E582C288
Accurately ripped (confidence 5) [18E12F55] (AR v2)
Copy OK
All tracks accurately ripped
No errors occurred
End of status report
---- CUETools DB Plugin V2.1.6
[CTDB TOCID: eGzHVy5M2._D7oIapJW4xGYe4j8-] found
Submit result: eGzHVy5M2._D7oIapJW4xGYe4j8- has been confirmed
Track | CTDB Status
1 | (2/2) Accurately ripped
2 | (2/2) Accurately ripped
3 | (2/2) Accurately ripped
4 | (2/2) Accurately ripped
5 | (2/2) Accurately ripped
6 | (2/2) Accurately ripped
7 | (2/2) Accurately ripped
8 | (2/2) Accurately ripped
9 | (2/2) Accurately ripped
10 | (2/2) Accurately ripped
11 | (2/2) Accurately ripped
12 | (2/2) Accurately ripped
==== Log checksum 722C7DD0D6559C18F4E803825000CF07DE48052B1C9C022FCD9976E69B558924 ====

Cue Sheet (.cue):

REM GENRE Jazz
REM DATE 2015
REM DISCID B00EDD0C
REM COMMENT "ExactAudioCopy v1.3"
PERFORMER "Ariel Pocock"
TITLE "Touchstone"
FILE "01 - Exactly Like You.wav" WAVE
TRACK 01 AUDIO
TITLE "Exactly Like You"
PERFORMER "Ariel Pocock"
ISRC USDBV1301669
INDEX 01 00:00:00
FILE "02 - Devil May Care.wav" WAVE
TRACK 02 AUDIO
TITLE "Devil May Care"
PERFORMER "Ariel Pocock"
ISRC USDBV1301670
INDEX 01 00:00:00
FILE "03 - Real Emotional Girl.wav" WAVE
TRACK 03 AUDIO
TITLE "Real Emotional Girl"
PERFORMER "Ariel Pocock"
ISRC USDBV1301671
INDEX 01 00:00:00
TRACK 04 AUDIO
TITLE "Barrel Roll"
PERFORMER "Ariel Pocock"
ISRC USDBV1301672
INDEX 00 04:17:23
FILE "04 - Barrel Roll.wav" WAVE
INDEX 01 00:00:00
TRACK 05 AUDIO
TITLE "Country"
PERFORMER "Ariel Pocock"
ISRC USDBV1301673
INDEX 00 07:04:13
FILE "05 - Country.wav" WAVE
INDEX 01 00:00:00
TRACK 06 AUDIO
TITLE "You Can Close Your Eyes"
PERFORMER "Ariel Pocock"
ISRC USDBV1301674
INDEX 00 05:00:39
FILE "06 - You Can Close Your Eyes.wav" WAVE
INDEX 01 00:00:00
TRACK 07 AUDIO
TITLE "Ugly Beauty/Still We Dream"
PERFORMER "Ariel Pocock"
ISRC USDBV1301675
INDEX 00 04:24:05
FILE "07 - Ugly Beauty,Still We Dream.wav" WAVE
INDEX 01 00:00:00
FILE "08 - All the Things You Are.wav" WAVE
TRACK 08 AUDIO
TITLE "All the Things You Are"
PERFORMER "Ariel Pocock"
ISRC USDBV1301676
INDEX 01 00:00:00
TRACK 09 AUDIO
TITLE "When I Fall in Love"
PERFORMER "Ariel Pocock"
ISRC USDBV1301677
INDEX 00 05:38:42
FILE "09 - When I Fall in Love.wav" WAVE
INDEX 01 00:00:00
TRACK 10 AUDIO
TITLE "Rainbow Sleeves"
PERFORMER "Ariel Pocock"
ISRC USDBV1301678
INDEX 00 04:57:70
FILE "10 - Rainbow Sleeves.wav" WAVE
INDEX 01 00:00:00
TRACK 11 AUDIO
TITLE "Mother Stands for Comfort"
PERFORMER "Ariel Pocock"
ISRC USDBV1301679
INDEX 00 05:20:50
FILE "11 - Mother Stands for Comfort.wav" WAVE
INDEX 01 00:00:00
TRACK 12 AUDIO
TITLE "Touchstone"
PERFORMER "Ariel Pocock"
ISRC USDBV1301680
INDEX 00 06:19:00
FILE "12 - Touchstone.wav" WAVE
INDEX 01 00:00:00

Отчёт auCDtect Task manager:

-----------------------
DON'T MODIFY THIS FILE
-----------------------
PERFORMER: auCDtect Task Manager, ver. 1.6.0 RC1 build 1.6.0.1
Copyright (c) 2008-2010 y-soft. All rights reserved
http://y-soft.org
ANALYZER: auCDtect: CD records authenticity detector, version 0.8.2
Copyright (c) 2004 Oleg Berngardt. All rights reserved.
Copyright (c) 2004 Alexander Djourik. All rights reserved.
FILE: 12 - Touchstone.flac
Size: 19713897 Hash: 12E5F737953FEDC3FFAF78123DC69C9D Accuracy: -m0
Conclusion: CDDA 100%
Signature: E7F800B536F1F61E88486342FD51AD193DCB6FDF
FILE: 11 - Mother Stands for Comfort.flac
Size: 36136206 Hash: 9F2BF5952518E50E03D831B0E7060F1E Accuracy: -m0
Conclusion: CDDA 100%
Signature: DA5A1CC213E62966694B3C7C524DE3B9A479C65B
FILE: 10 - Rainbow Sleeves.flac
Size: 22965268 Hash: CE90FAA6A8ABBC1857F11BFEDAB1FCE4 Accuracy: -m0
Conclusion: CDDA 99%
Signature: 3CC4AF12F3289C438A7ADB1F33350768A459912C
FILE: 09 - When I Fall in Love.flac
Size: 19701649 Hash: C639415A1678250A14C701CDC8C9AE00 Accuracy: -m0
Conclusion: CDDA 99%
Signature: 77354B2F476EB704A70B994831E872C1B1D92A43
FILE: 08 - All the Things You Are.flac
Size: 32100802 Hash: A4A7E093F6BDBCAC72E05886010D4081 Accuracy: -m0
Conclusion: CDDA 99%
Signature: E6AE985C3FEBF1383B2270AB8DAA2EB255580339
FILE: 07 - Ugly Beauty,Still We Dream.flac
Size: 22564608 Hash: 848C23FB34D58C66CE56531573480AF1 Accuracy: -m0
Conclusion: CDDA 100%
Signature: 2D5244733CC98C935A808562315B9F38F8E866AC
FILE: 06 - You Can Close Your Eyes.flac
Size: 23103140 Hash: 8E5E8B70E11B1B330973B207FA161595 Accuracy: -m0
Conclusion: CDDA 100%
Signature: C259D3C4CA490CDB8B44C2B966459547DC3E45B0
FILE: 05 - Country.flac
Size: 25899053 Hash: E3D53ABAA41DB91D2A84979803D44B88 Accuracy: -m0
Conclusion: CDDA 100%
Signature: 3C3F0134CD68096E74BC4410C973D8356FDE031A
FILE: 04 - Barrel Roll.flac
Size: 43070061 Hash: 87897A5A338AD9F0E3357BCC1ED33893 Accuracy: -m0
Conclusion: CDDA 100%
Signature: FCEC4B7BD77D4E1C9AD425D92634ECD906D7C981
FILE: 03 - Real Emotional Girl.flac
Size: 21567939 Hash: 14732EFFD024D433D7DE5A42364A6AB8 Accuracy: -m0
Conclusion: CDDA 100%
Signature: 1C2E3C44C19AB21B752440483B598B33DF2D377D
FILE: 02 - Devil May Care.flac
Size: 42137483 Hash: C3AF5E84D938C4DFF92B4D9C7D2C2390 Accuracy: -m0
Conclusion: CDDA 99%
Signature: 8E5CF444FC94A5C9D2DDAB91BDF302458D60C901
FILE: 01 - Exactly Like You.flac
Size: 21290370 Hash: DC98F3ACA9EFF22325CD7BBEB580ABEB Accuracy: -m0
Conclusion: CDDA 100%
Signature: 6C817185B1D11572B611301341ACB4B2698B1860

Состав

Ariel Pocock - piano, pump organ, vocals
Larry Grenadier - bass
Julian Lage - guitar
Eric Harland - drums, percussion
Seamus Blake - tenor saxophone
Время раздачи: c 15:00 до 22:00 (до появления первых 3-5 скачавших)-

Поглощение/вытеснение
Только с согласия релизера

Beijing65

If you like the topic, please click share to help develop our site.

To download the file disable ad blocking, and reload the page.

disable adblock How to disable ad blocking?

Download by magnet link 316 MB Download Torrent

Login using:

Similar topics



   
Current time is: 17-Feb 17:40 :: All times are UTC + 3