Информация о фильме
Название: Апгрейд
Оригинальное название: Upgrade
Год выпуска: 2018
Жанр: фантастика, боевик, триллер, детектив, криминал
Режиссер: Ли Уоннелл
В ролях: Логан Маршалл-Грин (Grey Trace), Мелани Валльехо (Asha Trace), Стив Даниелсен (Jeff Handley), Эбби Краден (Kara), Харрисон Гилбертсон (Eron Keen), Бенедикт Харди (Fisk), Ричард Коуторн (Serk), Кристофер Кирби (Tolan), Ричард Анастасиос (Wen), Кенни Лоу (Police Driver), Линда Кроппер (Pamela), Бетти Гэбриел (Detective Cortez)
О фильме: В ближайшем будущем разнообразные технологии участвуют во всех аспектах человеческой жизни. Но в этом технологичном мире Грей — один из немногих людей, кто любит работать руками. Он восстанавливает и чинит старые автомобили. Однажды, возвращаясь от клиента, Грей с женой попадают в аварию, а после — в руки банды отморозков, в результате чего женщина погибает, а Грей оказывается парализованным ниже шеи. Тот самый богатый клиент предлагает несчастному поставить экспериментальный имплант Stem, который может полностью восстановить подвижность.

Страна: Австралия
Студия: Blumhouse Productions, Goalpost Pictures
Продолжительность: 01:39:54
Перевод: Профессиональный (многоголосый, закадровый), Любительский (многоголосый, закадровый), Авторский (одноголосый, закадровый)
Файл
Качество: BDRip 720p
Формат: Matroska
Видео: 1280x536 at 23.976 fps, x264, ~4000 kbps avg
Аудио#1: Russian: 48 kHz, AC3, 3/2 (L,C,R,l,r) + LFE ch, ~640 kbps avg |Многоголосый закадровый, HDRezka Studio|
Аудио#2: Russian: 48 kHz, AC3, 3/2 (L,C,R,l,r) + LFE ch, ~640 kbps avg |Многоголосый закадровый, Колобок|
Аудио#3: Russian: 48 kHz, AC3, 3/2 (L,C,R,l,r) + LFE ch, ~640 kbps avg |Авторский, Е.Гаевский|*
Аудио#4: Russian: 48 kHz, AC3, 3/2 (L,C,R,l,r) + LFE ch, ~448 kbps avg |Авторский, М.Чадов|*
Аудио#5: English: 48 kHz, AC3, 3/2 (L,C,R,l,r) + LFE ch, ~640 kbps avg
Субтитры: Russian (Forced, Full), English (SDH)
***Сохранены оригинальные главы как на Blu-ray.
***Монтаж звука (1 и 2 дорожки) - karasidi.
***Перевод и работа со звуком Переводман. Озвучка Е.Гаевский. Релиз доступен благодаря: braindrill.
***Перевод: 7654. Озвучка: М.Чадов.
***Релиз: whip9З.
***Внимание! Присутствует ненормативная лексика!

MediaInfo

Общее
Уникальный идентификатор : 288632707355822077100672554455444780402 (0xD924A32CD153AEBAF2469F7F88147572)
Полное имя : Upgrade.2018.720p.BluRay.DD5.1.x264.-whip93.mkv
Формат : Matroska
Версия формата : Version 4 / Version 2
Размер файла : 4,90 Гбайт
Продолжительность : 1 ч. 39 м.
Общий поток : 7015 Кбит/сек
Название фильма : Апгрейд | Upgrade (2018) - Release by whip93
Дата кодирования : UTC 2018-09-02 06:01:51
Программа кодирования : mkvmerge v26.0.0 ('In The Game') 64-bit
Библиотека кодирования : libebml v1.3.6 + libmatroska v1.4.9
Видео
Идентификатор : 1
Формат : AVC
Формат/Информация : Advanced Video Codec
Профиль формата : [email protected]
Параметр CABAC формата : Да
Параметр ReFrames формата : 12 кадров
Идентификатор кодека : V_MPEG4/ISO/AVC
Продолжительность : 1 ч. 39 м.
Битрейт : 3867 Кбит/сек
Ширина : 1280 пикселей
Высота : 536 пикселей
Соотношение сторон : 2,40:1
Режим частоты кадров : Постоянный
Частота кадров : 23,976 кадра/сек
Цветовое пространство : YUV
Субдискретизация насыщенности : 4:2:0
Битовая глубина : 8 бит
Тип развёртки : Прогрессивная
Бит/(Пиксели*Кадры) : 0.235
Размер потока : 2,70 Гбайт (55%)
Заголовок : Encoded by whip93
Библиотека кодирования : x264 core 157 r2932 303c484
Настройки программы : cabac=1 / ref=12 / deblock=1:-3:-3 / analyse=0x3:0x133 / me=umh / subme=11 / psy=1 / psy_rd=1.00:0.08 / mixed_ref=0 / me_range=48 / chroma_me=1 / trellis=2 / 8x8dct=1 / cqm=0 / deadzone=21,11 / fast_pskip=1 / chroma_qp_offset=-3 / threads=12 / lookahead_threads=3 / sliced_threads=0 / nr=0 / decimate=1 / interlaced=0 / bluray_compat=0 / constrained_intra=0 / bframes=16 / b_pyramid=2 / b_adapt=2 / b_bias=0 / direct=1 / weightb=1 / open_gop=0 / weightp=2 / keyint=240 / keyint_min=23 / scenecut=40 / intra_refresh=0 / rc_lookahead=90 / rc=crf / mbtree=0 / crf=17.0 / qcomp=0.72 / qpmin=0 / qpmax=69 / qpstep=4 / vbv_maxrate=62500 / vbv_bufsize=78125 / crf_max=0.0 / nal_hrd=none / filler=0 / ip_ratio=1.40 / pb_ratio=1.30 / aq=3:0.80
Язык : English
Default : Да
Forced : Нет
Основные цвета : BT.709
Характеристики трансфера : BT.709
Коэффициенты матрицы : BT.709
Аудио #1
Идентификатор : 2
Формат : AC-3
Формат/Информация : Audio Coding 3
Расширение режима : CM (complete main)
Параметр Endianness формата : Big
Идентификатор кодека : A_AC3
Продолжительность : 1 ч. 39 м.
Вид битрейта : Постоянный
Битрейт : 640 Кбит/сек
Каналы : 6 каналов
Расположение каналов : Front: L C R, Side: L R, LFE
Частота : 48,0 КГц
Битовая глубина : 16 бит
Метод сжатия : С потерями
Размер потока : 457 Мбайт (9%)
Заголовок : MVO (HDrezka Studio)
Язык : Russian
Default : Да
Forced : Нет
Аудио #2
Идентификатор : 3
Формат : AC-3
Формат/Информация : Audio Coding 3
Расширение режима : CM (complete main)
Параметр Endianness формата : Big
Идентификатор кодека : A_AC3
Продолжительность : 1 ч. 39 м.
Вид битрейта : Постоянный
Битрейт : 640 Кбит/сек
Каналы : 6 каналов
Расположение каналов : Front: L C R, Side: L R, LFE
Частота : 48,0 КГц
Битовая глубина : 16 бит
Метод сжатия : С потерями
Размер потока : 457 Мбайт (9%)
Заголовок : MVO (Колобок)
Язык : Russian
Default : Нет
Forced : Нет
Аудио #3
Идентификатор : 4
Формат : AC-3
Формат/Информация : Audio Coding 3
Расширение режима : CM (complete main)
Параметр Endianness формата : Big
Идентификатор кодека : A_AC3
Продолжительность : 1 ч. 39 м.
Вид битрейта : Постоянный
Битрейт : 640 Кбит/сек
Каналы : 6 каналов
Расположение каналов : Front: L C R, Side: L R, LFE
Частота : 48,0 КГц
Битовая глубина : 16 бит
Метод сжатия : С потерями
Размер потока : 457 Мбайт (9%)
Заголовок : AVO (Гаевский)
Язык : Russian
Default : Нет
Forced : Нет
Аудио #4
Идентификатор : 5
Формат : AC-3
Формат/Информация : Audio Coding 3
Расширение режима : CM (complete main)
Параметр Endianness формата : Big
Идентификатор кодека : A_AC3
Продолжительность : 1 ч. 39 м.
Вид битрейта : Постоянный
Битрейт : 448 Кбит/сек
Каналы : 6 каналов
Расположение каналов : Front: L C R, Side: L R, LFE
Частота : 48,0 КГц
Битовая глубина : 16 бит
Метод сжатия : С потерями
Размер потока : 320 Мбайт (6%)
Заголовок : VO (Чадов)
Язык : Russian
Default : Нет
Forced : Нет
Аудио #5
Идентификатор : 6
Формат : AC-3
Формат/Информация : Audio Coding 3
Расширение режима : CM (complete main)
Параметр Endianness формата : Big
Идентификатор кодека : A_AC3
Продолжительность : 1 ч. 39 м.
Вид битрейта : Постоянный
Битрейт : 640 Кбит/сек
Каналы : 6 каналов
Расположение каналов : Front: L C R, Side: L R, LFE
Частота : 48,0 КГц
Битовая глубина : 16 бит
Метод сжатия : С потерями
Размер потока : 457 Мбайт (9%)
Заголовок : Original
Язык : English
Default : Нет
Forced : Нет
Текст #1
Идентификатор : 7
Формат : UTF-8
Идентификатор кодека : S_TEXT/UTF8
Идентификатор кодека/Информация : UTF-8 Plain Text
Заголовок : Forced
Язык : Russian
Default : Да
Forced : Нет
Текст #2
Идентификатор : 8
Формат : UTF-8
Идентификатор кодека : S_TEXT/UTF8
Идентификатор кодека/Информация : UTF-8 Plain Text
Заголовок : v. 1
Язык : Russian
Default : Нет
Forced : Нет
Текст #3
Идентификатор : 9
Формат : UTF-8
Идентификатор кодека : S_TEXT/UTF8
Идентификатор кодека/Информация : UTF-8 Plain Text
Заголовок : v. 2
Язык : Russian
Default : Нет
Forced : Нет
Текст #4
Идентификатор : 10
Формат : UTF-8
Идентификатор кодека : S_TEXT/UTF8
Идентификатор кодека/Информация : UTF-8 Plain Text
Заголовок : v. 3
Язык : Russian
Default : Нет
Forced : Нет
Текст #5
Идентификатор : 11
Формат : UTF-8
Идентификатор кодека : S_TEXT/UTF8
Идентификатор кодека/Информация : UTF-8 Plain Text
Заголовок : v. 4
Язык : Russian
Default : Нет
Forced : Нет
Текст #6
Идентификатор : 12
Формат : UTF-8
Идентификатор кодека : S_TEXT/UTF8
Идентификатор кодека/Информация : UTF-8 Plain Text
Заголовок : Original (SDH)
Язык : English
Default : Нет
Forced : Нет
Меню
00:00:00.000 : en:Chapter 1
00:05:38.296 : en:Chapter 2
00:09:04.919 : en:Chapter 3
00:15:26.759 : en:Chapter 4
00:18:42.705 : en:Chapter 5
00:21:43.636 : en:Chapter 6
00:28:37.382 : en:Chapter 7
00:34:42.622 : en:Chapter 8
00:41:17.058 : en:Chapter 9
00:47:55.623 : en:Chapter 10
00:51:14.530 : en:Chapter 11
00:56:58.457 : en:Chapter 12
01:01:34.566 : en:Chapter 13
01:05:22.168 : en:Chapter 14
01:09:10.938 : en:Chapter 15
01:16:13.194 : en:Chapter 16
01:20:17.104 : en:Chapter 17
01:25:41.928 : en:Chapter 18
01:31:45.250 : en:Chapter 19
01:33:57.632 : en:Chapter 20

Скриншоты


If you like the topic, please click share to help develop our site.

To download the file disable ad blocking, and reload the page.

disable adblock How to disable ad blocking?

Download by magnet link 4.9 GB Download Torrent

Login using:

Similar topics

Апгрейд / Upgrade (2018) BDRip 1080p от & | iTunes
 5.5 GB   249 | 4   02-Jan-19 20:30   2


   
Current time is: 26-Apr 15:04 :: All times are UTC + 3