- Военная приемка. Академия Генштаба ВС РФ. (02.09.2018) SATRip - Телекомпания: ОАО «ТРК ВС РФ «ЗВЕЗДА
Жанр: Документальный
Режиссер: Александр Шильников
Ведущий: Алексей Егоров
Описание:Паркетный плац, одна из старейших библиотек и огромнейший командный центр. Правда, учебный. В этот раз «Военная приёмка» отправляется в самую настоящую школу полководцев – Военную академию Генерального штаба Вооружённых Сил Российской Федерации.⠀ ⠀ Это высшее учебное заведение для командного состава ВС. Съёмочную группу программы пропустят туда, куда прежде журналистам вход был под запретом. Вы увидите: где учатся и тренируются слушатели академии; где они занимаются спортом. Но самое главное, мы покажем, как проходят учения будущих командиров армий и округов, которые могут длиться неделю, За это время слушатели академии обучаются управлению и организацией сотен тысяч людей, танков, самолётов и кораблей. Пока, всего лишь виртуально, но все эти сложнейшие симуляторы — далеко не игрушки для детских забав.⠀Релиз от: centoriuse
Продолжительность: 00:37:49
Качество видео: SATRip
Видео: MPEG4, XviD, 720x400 (16:9), 25.000 fps, 1 809 Kbps (0.251 bit/pixel)
Аудио: AC-3, 48.0 KHz, 2 ch, 192 Kbps, CBR

Mediainfo:

Общее
Полное имя : F:\видео\фильмы\Военная приемка\Военная приемка (2018.09.02) SATRip.avi
Формат : AVI
Формат/Информация : Audio Video Interleave
Размер файла : 544 Мбайт
Продолжительность : 37 м. 49 с.
Общий поток : 2010 Кбит/сек
Программа кодирования : VirtualDubMod 1.5.10.3 | www.virtualdub-fr.org || (build 2550/release)
Библиотека кодирования : VirtualDubMod build 2550/release
Видео
Идентификатор : 0
Формат : MPEG-4 Visual
Профиль формата : Advanced [email protected]
Настройки формата : BVOP1
Параметр BVOP формата : 1
Параметр QPel формата : Нет
Параметр GMC формата : Без точки перехода
Параметр матрицы формата : Default (H.263)
Идентификатор кодека : XVID
Идентификатор кодека/Подсказка : XviD
Продолжительность : 37 м. 49 с.
Битрейт : 1809 Кбит/сек
Ширина : 720 пикселей
Высота : 400 пикселей
Соотношение сторон : 16:9
Частота кадров : 25,000 кадров/сек
Цветовое пространство : YUV
Субдискретизация насыщенности : 4:2:0
Битовая глубина : 8 бит
Тип развёртки : Прогрессивная
Метод сжатия : С потерями
Бит/(Пиксели*Кадры) : 0.251
Размер потока : 489 Мбайт (90%)
Библиотека кодирования : XviD 1.2.1 (UTC 2008-12-04)
Аудио
Идентификатор : 1
Формат : AC-3
Формат/Информация : Audio Coding 3
Коммерческое название : Dolby Digital
Идентификатор кодека : 2000
Продолжительность : 37 м. 49 с.
Вид битрейта : Постоянный
Битрейт : 192 Кбит/сек
Каналы : 2 канала
Channel layout : L R
Частота : 48,0 КГц
Частота кадров : 31,250 кадров/сек (1536 SPF)
Битовая глубина : 16 бит
Метод сжатия : С потерями
Размер потока : 51,9 Мбайт (10%)
Выравнивание : Разделение по промежуткам
Продолжительность промежутка : 40 мс. (1,00 видеокадр)
Время предзагрузки промежутка : 500 мс.
ServiceKind/String : Complete Main
Скриншоты:
Все одноименные релизы в КлубеВремя раздачи: 24/7 (до появления первых 3-5 скачавших)

If you like the topic, please click share to help develop our site.

To download the file disable ad blocking, and reload the page.

disable adblock How to disable ad blocking?

Download by magnet link 544 MB Download Torrent

Login using:

Similar topics



   
Current time is: 19-Jul 13:28 :: All times are UTC + 3