- Дикая Франция с Рэем Мирсом / Wild France with Ray Mears (2015) HDTVRip [H.264/1080i-LQ] (Сезон 1, серии 1-6 из 6) - Производство: Великобритания, ITV Studios, National Geographic Channel
Жанр: Документальный, природа, флора, фауна
Продюсер: Фил Коулз
Описание:
Рэй Мирс открывает впечатляющие пейзажи Франции. Его путь лежит через горы, леса, реки, по побережьям и болотам, во время путешествия он исследует жизнь животных и растений дикой природы.
Релиз от: рип Zakol
Продолжительность: 6х ~ 00:22:00
Качество видео: HDTVRip
Перевод: Одноголосый закадровый, профессиональный (Велес)
Субтитры: отсутствуют
Видео: AVC/H.264, 1920x1080, ~4500 Kbps
Аудио#1: AC3, 2 ch, 192 Kbps | Русский (текст читал: Борис Хасанов)
Аудио#2: AC3, 2 ch, 192 Kbps | Английский

Mediainfo: (тех. данные всех серий идентичны)

Общее
Уникальный идентификатор : 128491872370725570557237924841117867025 (0x60AAA26C07D63AD1333EF5EF0FE65C11)
Полное имя : F:\КИНО\Дикая Франция с Р. М. 1080p (2015)\3 Дикая Франция 1080p.mkv
Формат : Matroska
Версия формата : Version 4 / Version 2
Размер файла : 769 Мбайт
Продолжительность : 21 м. 59 с.
Общий поток : 4888 Кбит/сек
Программа кодирования : XviD4PSP 7.0.456 DAILY
Библиотека кодирования : Lavf57.71.100
ErrorDetectionType : Per level 1
ENCODING_INFO : MPEGTS > MKV / H264 > X264 VBR-2P 4500kbps HQ / MP2 > AC3 CBR 192kbps / MP2 > AC3 CBR 192kbps
Видео
Идентификатор : 1
Формат : AVC
Формат/Информация : Advanced Video Codec
Профиль формата : [email protected]
Настройки формата : CABAC / 4 Ref Frames
Параметр CABAC формата : Да
Параметр RefFrames формата : 4 кадра
Идентификатор кодека : V_MPEG4/ISO/AVC
Продолжительность : 21 м. 59 с.
Битрейт : 4500 Кбит/сек
Ширина : 1920 пикселей
Высота : 1080 пикселей
Соотношение сторон : 16:9
Режим частоты кадров : Постоянный
Частота кадров : 25,000 кадров/сек
Цветовое пространство : YUV
Субдискретизация насыщенности : 4:2:0
Битовая глубина : 8 бит
Тип развёртки : Прогрессивная
Бит/(Пиксели*Кадры) : 0.087
Размер потока : 693 Мбайт (90%)
Библиотека кодирования : x264 core 155 r2901M 7d0ff22
Настройки программы : cabac=1 / ref=3 / deblock=1:-3:-3 / analyse=0x3:0x113 / me=hex / subme=7 / psy=1 / psy_rd=1.00:0.20 / mixed_ref=1 / me_range=16 / chroma_me=1 / trellis=1 / 8x8dct=1 / cqm=0 / deadzone=21,11 / fast_pskip=1 / chroma_qp_offset=-3 / threads=9 / lookahead_threads=1 / sliced_threads=0 / nr=0 / decimate=1 / interlaced=0 / bluray_compat=0 / constrained_intra=0 / bframes=3 / b_pyramid=2 / b_adapt=2 / b_bias=0 / direct=3 / weightb=1 / open_gop=0 / weightp=2 / keyint=250 / keyint_min=25 / scenecut=40 / intra_refresh=0 / rc_lookahead=40 / rc=2pass / mbtree=1 / bitrate=4500 / ratetol=1.0 / qcomp=0.60 / qpmin=0 / qpmax=69 / qpstep=4 / cplxblur=20.0 / qblur=0.5 / ip_ratio=1.40 / aq=1:1.00
Default : Да
Forced : Нет
Аудио #1
Идентификатор : 2
Формат : AC-3
Формат/Информация : Audio Coding 3
Идентификатор кодека : A_AC3
Продолжительность : 21 м. 59 с.
Вид битрейта : Постоянный
Битрейт : 192 Кбит/сек
Каналы : 2 канала
Расположение каналов : Front: L R
Частота : 48,0 КГц
Частота кадров : 31,250 кадров/сек (1536 SPF)
Битовая глубина : 16 бит
Метод сжатия : С потерями
Размер потока : 30,2 Мбайт (4%)
Язык : Russian
ServiceKind/String : Complete Main
Default : Да
Forced : Нет
Аудио #2
Идентификатор : 3
Формат : AC-3
Формат/Информация : Audio Coding 3
Идентификатор кодека : A_AC3
Продолжительность : 21 м. 59 с.
Вид битрейта : Постоянный
Битрейт : 192 Кбит/сек
Каналы : 2 канала
Расположение каналов : Front: L R
Частота : 48,0 КГц
Частота кадров : 31,250 кадров/сек (1536 SPF)
Битовая глубина : 16 бит
Метод сжатия : С потерями
Размер потока : 30,2 Мбайт (4%)
Язык : English
ServiceKind/String : Complete Main
Default : Нет
Forced : Нет

Содержание:

1-я серия
Рэй отправляется в Альпы, в национальный парк Вануаз и забирается на гору, чтобы найти одну из самых редких птиц Европы - бородатого грифа.
2-я серия
Рэй исследует скалы и пещеры Ардеша, сплавляется на каноэ, чтобы посмотреть на лягушек и змей перед тем, как отправиться наблюдать за бобрами.
3-я серия
Рэй отправляется в Камарг, чтобы посетить солончаки и узнать, как соль влияет на ландшафт, но перед этим он встретится с местными ковбоями.
4-я серия
Рэй отправляется в Севенны, чтобы разгадать секреты загадочного ландшафта. Он узнаёт о скрытом мире пчёл и знакомится с каштановым фермером.
5-я серия
Рэй отправляется в Прованс, чтобы подробнее узнать о его ландшафте, побывать на лавандовых полях и посмотреть на диких животных.
6-я серия
Рэй отправляется на западный берег Бретани, чтобы как следует его изучить. Там он обязательно познакомится с дельфинами и морскими котиками.
Скриншоты:

Дополнительные скриншоты:

Все одноименные релизы в КлубеВремя раздачи: с 18:00 до 23:00 (до появления первых 3-5 скачавших)

If you like the topic, please click share to help develop our site.

To download the file disable ad blocking, and reload the page.

disable adblock How to disable ad blocking?

Download by magnet link 4.48 GB Download Torrent

Login using:

Similar topics



   
Current time is: 22-Apr 09:49 :: All times are UTC + 3