- Царство больших акул / Big Sharks Rule (2018) HDTV [H.264/1080i-LQ] - Производство: США, National Geographic Channel
Жанр: Документальный, природа, флора, фауна
Продюсер: Эшли Хоппин
Описание:
В этом фильме вам предстоит путешествие в королевство Больших Акул. Что это за существа? Как они выживают? Почему они обитают именно в этом месте, и как они умудряются вырасти до таких невероятных размеров?
Релиз от: Zakol
Продолжительность: 00:43:58
Качество видео: HDTV
Перевод: Дублированный (Велес)
Субтитры: отсутствуют
Видео: AVC/H.264, 1920x1080, ~6500 Kbps
Аудио#1: MP2, 2 ch, 192 Kbps | Русский (текст читал: Олег Белов)
Аудио#2: MP2, 2 ch, 192 Kbps | Английский

Mediainfo:

Общее
Идентификатор : 1 (0x1)
Полное имя : F:\КИНО\Царство больших акул 1080 (2018).ts
Формат : MPEG-TS
Размер файла : 2,21 Гбайт
Продолжительность : 43 м. 58 с.
Режим общего битрейта : Переменный
Общий поток : 7197 Кбит/сек
Видео
Идентификатор : 1154 (0x482)
Идентификатор меню : 135 (0x87)
Формат : AVC
Формат/Информация : Advanced Video Codec
Профиль формата : [email protected]
Настройки формата : CABAC / 2 Ref Frames
Параметр CABAC формата : Да
Параметр RefFrames формата : 2 кадра
Параметр GOP формата : M=3, N=32
Идентификатор кодека : 27
Продолжительность : 43 м. 58 с.
Вид битрейта : Постоянный
Битрейт : 6500 Кбит/сек
Ширина : 1920 пикселей
Высота : 1080 пикселей
Соотношение сторон : 16:9
Частота кадров : 25,000 кадров/сек
Цветовое пространство : YUV
Субдискретизация насыщенности : 4:2:0
Битовая глубина : 8 бит
Тип развёртки : Чересстрочная
Метод сохранения типа развёртки : Раздельные поля
Порядок развёртки : Верхнее поле первое
Бит/(Пиксели*Кадры) : 0.125
Размер потока : 1,98 Гбайт (90%)
Аудио #1
Идентификатор : 1155 (0x483)
Идентификатор меню : 135 (0x87)
Формат : MPEG Audio
Версия формата : Version 1
Профиль формата : Layer 2
Идентификатор кодека : 3
Продолжительность : 43 м. 58 с.
Вид битрейта : Постоянный
Битрейт : 192 Кбит/сек
Каналы : 2 канала
Частота : 48,0 КГц
Частота кадров : 41,667 кадра/сек (1152 SPF)
Метод сжатия : С потерями
Размер потока : 60,4 Мбайт (3%)
Язык : Russian
Аудио #2
Идентификатор : 1156 (0x484)
Идентификатор меню : 135 (0x87)
Формат : MPEG Audio
Версия формата : Version 1
Профиль формата : Layer 2
Идентификатор кодека : 3
Продолжительность : 43 м. 58 с.
Вид битрейта : Постоянный
Битрейт : 192 Кбит/сек
Каналы : 2 канала
Частота : 48,0 КГц
Частота кадров : 41,667 кадра/сек (1152 SPF)
Метод сжатия : С потерями
Размер потока : 60,4 Мбайт (3%)
Язык : English
Скриншоты:
Все одноименные релизы в КлубеВремя раздачи: с 18:00 до 23:00 (до появления первых 3-5 скачавших)

If you like the topic, please click share to help develop our site.

To download the file disable ad blocking, and reload the page.

disable adblock How to disable ad blocking?

Download by magnet link 2.21 GB Download Torrent

Login using:

Similar topics



   
Current time is: 21-Feb 20:40 :: All times are UTC + 3