Три горы / Drei Zinnen (Three Peaks) Страна: Германия, Италия
Жанр: Драма
Год выпуска: 2017
Продолжительность: 01:28:17
Перевод: Любительский (двухголосый закадровый) datynet & Galina Vasyukova; перевод: Куценко
Субтитры: нет
Оригинальная аудиодорожка: нет
Режиссер: Ян Цабайль / Jan Zabeil
В ролях: Александр Фелинг, Беренис Бежо, Ариан Монтгомери.
Описание: У Аарона есть желание стать одной семьей со своей девушкой и ее 8-летним сыном, но высоко в итальянских Доломитах его попытки завоевать признание мальчика превращается в опасную игру.
Доп. информация: 2 победы и 1 номинация:
Hof International Film Festival 2017
Locarno International Film Festival 2017
Palm Springs International Film Festival 2018


Сэмпл: http://multi-up.com/1207609
Качество видео: HDTVRip-AVC
Формат видео: MKV
Видео: 720x304 (2.35:1), 25 fps, MPEG4 Video (H264) [email protected] ~2 114 kbps avg, 0.386 bit/pixel
Аудио: 48 kHz, MPEG Layer 3, 2 ch, ~ 192 kbps avg

MediaInfo

Format                      : MatroskaFormat version              : Version 2File size                   : 1.40 GiBDuration                    : 1 h 28 minOverall bit rate            : 2 269 kb/sEncoded date                : UTC 2018-08-31 10:26:34 / UTC 2018-08-31 10:26:34Writing application         : Lavf54.63.104Writing library             : Lavf54.63.104
VideoID : 1Format : AVCFormat/Info : Advanced Video CodecFormat profile : [email protected] settings, CABAC : YesFormat settings, RefFrames : 1 frameCodec ID : V_MPEG4/ISO/AVCDuration : 1 h 28 minBit rate : 2 114 kb/sWidth : 720 pixelsHeight : 304 pixelsDisplay aspect ratio : 2.35:1Frame rate mode : ConstantFrame rate : 25.000 FPSColor space : YUVChroma subsampling : 4:2:0Bit depth : 8 bitsScan type : ProgressiveBits/(Pixel*Frame) : 0.386Stream size : 1.25 GiB (90%)Writing library : x264 core 129Default : YesForced : No
AudioID : 2Format : MPEG AudioFormat version : Version 1Format profile : Layer 3Mode : Joint stereoMode extension : MS StereoCodec ID : A_MPEG/L3Codec ID/Hint : MP3Duration : 1 h 28 minBit rate mode : ConstantBit rate : 192 kb/sChannel(s) : 2 channelsSampling rate : 48.0 kHzCompression mode : LossyStream size : 121 MiB (8%)Default : YesForced : No

Скриншот c названием фильма

Скриншоты


If you like the topic, please click share to help develop our site.

To download the file disable ad blocking, and reload the page.

disable adblock How to disable ad blocking?

Download by magnet link 1.4 GB Download Torrent

Login using:

Similar topics



   
Current time is: 23-Apr 21:27 :: All times are UTC + 3