- Аврил и поддельный мир / Avril et le monde truque (2015) BDRip [H.264/720p] [MVO]- Производство: Франция, Бельгия, Канада / Je Suis Bien Content, StudioCanal, Kaibou Productions
Жанр: Приключения
Режиссер: Кристиан Димар, Франк Экинджи
Описание:
Нас окружает мир, наполненный всеми достижениями научно-технического прогресса. Но в мультфильме показан ход альтернативной истории. Действие происходит в 1941 году во Франции, где правит Наполеон VI. Все ученые, которые пытаются создать инновационный прорыв в науке, бесследно исчезают. Поэтому в этом мире до сих пор преобладают машины, работающие на паровых двигателях. Родители маленькой Аврил тоже были учеными, которые трудились над изобретением эликсира, дающего человеку бессмертие. Их ждала участь их коллег - они пропали. С тех пор прошло много времени, но Аврил не теряет надежду найти их и раскрыть тайну исчезновения остальных ученых...

Рейтинг MPAA: PG (рекомендуется присутствие родителей)
Продолжительность: 01:46:33
Качество видео: BDRip [thumb]http://sendfile.su/1427139[/thumb]
Перевод: Многоголосый закадровый, профессиональный
Субтитры: Русские, Английские, Французские
Видео: AVC/H.264, 1280x692, ~4285 Kbps
Аудио 1: AC3, 48 KHz, 6 ch, 640 Kbps | русский MVO, студия CВ
Аудио 2: AC3, 48 KHz, 6 ch, 640 Kbps | французский
Аудио 3: AC3, 48 KHz, 6 ch, 640 Kbps | английский

Mediainfo:

Общее
Уникальный идентификатор : 2293161766136587138731149670689999861 (0x1B9A59AAA9C0B817DE427AE1BE70BF5)
Полное имя : \April.and.the.Extraordinary.World.2015.720p.Rus.Fre.Eng.mkv
Формат : Matroska
Версия формата : Version 4 / Version 2
Размер файла : 4,70 Гбайт
Продолжительность : 1 ч. 46 м.
Общий поток : 6318 Кбит/сек
Название фильма : April and the Extraordinary World 2015 720p BluRay DD5.1 x264-IDE
Дата кодирования : UTC 2018-06-23 19:09:33
Программа кодирования : mkvmerge v24.0.0 ('Beyond The Pale') 64-bit
Библиотека кодирования : libebml v1.3.6 + libmatroska v1.4.9
Обложка : Yes
Attachments : cover.jpg
Видео
Идентификатор : 1
Формат : AVC
Формат/Информация : Advanced Video Codec
Профиль формата : [email protected]
Настройки формата : CABAC / 9 Ref Frames
Параметр CABAC формата : Да
Параметр RefFrames формата : 9 кадров
Идентификатор кодека : V_MPEG4/ISO/AVC
Продолжительность : 1 ч. 46 м.
Битрейт : 4385 Кбит/сек
Ширина : 1280 пикселей
Высота : 692 пикселя
Соотношение сторон : 1,85:1
Режим частоты кадров : Постоянный
Частота кадров : 23,976 (24000/1001) кадра/сек
Цветовое пространство : YUV
Субдискретизация насыщенности : 4:2:0
Битовая глубина : 8 бит
Тип развёртки : Прогрессивная
Бит/(Пиксели*Кадры) : 0.206
Размер потока : 3,26 Гбайт (69%)
Библиотека кодирования : x264 core 142 r2431+42 c69a006 tMod [[email protected]:2:0 X86_64]
Настройки программы : cabac=1 / ref=9 / deblock=1:-3:-3 / analyse=0x3:0x133 / me=umh / subme=11 / psy=1 / fade_compensate=0.00 / psy_rd=1.00:0.00 / mixed_ref=1 / me_range=32 / chroma_me=1 / trellis=2 / 8x8dct=1 / cqm=0 / deadzone=21,11 / fast_pskip=0 / chroma_qp_offset=-2 / threads=6 / lookahead_threads=1 / sliced_threads=0 / nr=0 / decimate=0 / interlaced=0 / bluray_compat=0 / constrained_intra=0 / fgo=0 / bframes=14 / b_pyramid=2 / b_adapt=2 / b_bias=0 / direct=3 / weightb=1 / open_gop=0 / weightp=2 / keyint=250 / keyint_min=23 / scenecut=40 / intra_refresh=0 / rc_lookahead=60 / rc=crf / mbtree=0 / crf=14.7000 / qcomp=0.65 / qpmin=0:0:0 / qpmax=69:69:69 / qpstep=4 / vbv_maxrate=62500 / vbv_bufsize=78125 / crf_max=0.0 / nal_hrd=none / filler=0 / ip_ratio=1.30 / pb_ratio=1.20 / aq=3:0.80 / aq-sensitivity=10.00 / aq-factor=1.00:1.00:1.00 / aq2=0 / aq3=0 / zones=24,589,crf=16/1529,1617,crf=13/5410,5465,crf=12.5/6585,6783,crf=12.5/6941,7397,crf=12.5/8355,8389,crf=12.5/8467,8504,crf=13/8778,8885,crf=13/8933,9151,crf=13/9913,10022,crf=13.5/10759,10888,crf=13/11108,11316,crf=12.5/83791,84388,crf=12.5/88615,88777,crf=12.5/89380,89428,crf=13/90831,91040,crf=12.5/97237,97314,crf=12.5/97510,97534,crf=12.5/97807,98056,crf=12.5/98271,98461,crf=12.5/98597,98660,crf=12.5/99103,99269,crf=12.5/109213,110310,crf=12.5/111279,111491,crf=12.5/115429,115595,crf=12.5/130239,130291,crf=12.5/130423,130542,crf=12.5/142934,153289,crf=24
Язык : French
Default : Да
Forced : Нет
Аудио #1
Идентификатор : 2
Формат : AC-3
Формат/Информация : Audio Coding 3
Идентификатор кодека : A_AC3
Продолжительность : 1 ч. 46 м.
Вид битрейта : Постоянный
Битрейт : 640 Кбит/сек
Каналы : 6 каналов
Расположение каналов : Front: L C R, Side: L R, LFE
Частота : 48,0 КГц
Частота кадров : 31,250 кадров/сек (1536 SPF)
Битовая глубина : 16 бит
Метод сжатия : С потерями
Размер потока : 488 Мбайт (10%)
Заголовок : СВ Студия
Язык : Russian
ServiceKind/String : Complete Main
Default : Да
Forced : Нет
Аудио #2
Идентификатор : 3
Формат : AC-3
Формат/Информация : Audio Coding 3
Идентификатор кодека : A_AC3
Продолжительность : 1 ч. 46 м.
Вид битрейта : Постоянный
Битрейт : 640 Кбит/сек
Каналы : 6 каналов
Расположение каналов : Front: L C R, Side: L R, LFE
Частота : 48,0 КГц
Частота кадров : 31,250 кадров/сек (1536 SPF)
Битовая глубина : 16 бит
Метод сжатия : С потерями
Размер потока : 488 Мбайт (10%)
Язык : French
ServiceKind/String : Complete Main
Default : Нет
Forced : Нет
Аудио #3
Идентификатор : 4
Формат : AC-3
Формат/Информация : Audio Coding 3
Идентификатор кодека : A_AC3
Продолжительность : 1 ч. 46 м.
Вид битрейта : Постоянный
Битрейт : 640 Кбит/сек
Каналы : 6 каналов
Расположение каналов : Front: L C R, Side: L R, LFE
Частота : 48,0 КГц
Частота кадров : 31,250 кадров/сек (1536 SPF)
Битовая глубина : 16 бит
Метод сжатия : С потерями
Размер потока : 488 Мбайт (10%)
Заголовок : English Dual Audio
Язык : English
ServiceKind/String : Complete Main
Default : Нет
Forced : Нет
Текст #1
Идентификатор : 5
Формат : UTF-8
Идентификатор кодека : S_TEXT/UTF8
Идентификатор кодека/Информация : UTF-8 Plain Text
Продолжительность : 1 ч. 38 м.
Битрейт : 101 бит/сек
ElementCount : 1291
Размер потока : 73,2 Кбайт (0%)
Язык : Russian
Default : Нет
Forced : Нет
Текст #2
Идентификатор : 6
Формат : UTF-8
Идентификатор кодека : S_TEXT/UTF8
Идентификатор кодека/Информация : UTF-8 Plain Text
Продолжительность : 1 ч. 42 м.
Битрейт : 46 бит/сек
ElementCount : 1198
Размер потока : 35,1 Кбайт (0%)
Язык : English
Default : Нет
Forced : Нет
Текст #3
Идентификатор : 7
Формат : UTF-8
Идентификатор кодека : S_TEXT/UTF8
Идентификатор кодека/Информация : UTF-8 Plain Text
Продолжительность : 1 ч. 38 м.
Битрейт : 70 бит/сек
ElementCount : 1652
Размер потока : 51,0 Кбайт (0%)
Заголовок : SDH
Язык : English
Default : Нет
Forced : Нет
Текст #4
Идентификатор : 8
Формат : PGS
Режим смешивания : zlib
Идентификатор кодека : S_HDMV/PGS
Идентификатор кодека/Информация : Picture based subtitle format used on BDs/HD-DVDs
Продолжительность : 1 ч. 42 м.
Битрейт : 37,0 Кбит/сек
ElementCount : 2274
Размер потока : 27,2 Мбайт (1%)
Язык : French
Default : Нет
Forced : Нет
Меню
00:00:00.000 : en:00:00:00.000
00:05:46.346 : en:00:05:46.346
00:10:01.768 : en:00:10:01.768
00:15:23.881 : en:00:15:23.881
00:21:23.282 : en:00:21:23.282
00:26:29.963 : en:00:26:29.963
00:31:39.564 : en:00:31:39.564
00:37:30.081 : en:00:37:30.081
00:42:15.908 : en:00:42:15.908
00:47:04.113 : en:00:47:04.113
00:52:40.574 : en:00:52:40.574
00:58:39.725 : en:00:58:39.725
01:03:17.168 : en:01:03:17.168
01:10:05.159 : en:01:10:05.159
01:13:53.304 : en:01:13:53.304
01:19:29.056 : en:01:19:29.056
01:25:19.823 : en:01:25:19.823
01:30:04.983 : en:01:30:04.983
01:34:55.356 : en:01:34:55.356
01:39:21.539 : en:01:39:21.539
Скриншоты:
Все одноименные релизы в КлубеВремя раздачи: с 10:00 до 23:00 (до появления первых 3-5 скачавших)

If you like the topic, please click share to help develop our site.

To download the file disable ad blocking, and reload the page.

disable adblock How to disable ad blocking?

Download by magnet link 4.7 GB Download Torrent

Login using:

Similar topics



   
Current time is: 26-Apr 14:57 :: All times are UTC + 3