The Firm - Mean Business- -Жанр: Rock
Страна-производитель диска: Japan For USA
Год издания диска: 1986
Лейбл: Atlantic
Номер по каталогу: 7 81628-2
Страна исполнителя: UK
Аудио кодек: FLAC (*.flac)
Тип рипа: image+.cue
Битрейт аудио: lossless
Продолжительность: 39:36
Источник: dafnaplus
Наличие сканов в содержимом раздачи: да, dpi 600
Трэклист:
01. Fortune Hunter 5:02
02. Cadillac 5:57
03. All The Kings Horses 3:19
04. Live In Peace 5:06
05. Tear Down The Walls 4:46
06. Dreaming 6:03
07. Free To Live 4:15
08. Spirit Of Love 5:08
-

Лог создания рипа

Exact Audio Copy V1.3 from 2. September 2016
EAC extraction logfile from 25. August 2018, 10:43
The Firm / Mean Business (7 81628-2)
Used drive : ASUS DRW-24D5MT Adapter: 1 ID: 0
Read mode : SecureUtilize accurate stream : YesDefeat audio cache : YesMake use of C2 pointers : No
Read offset correction : 6Overread into Lead-In and Lead-Out : NoFill up missing offset samples with silence : YesDelete leading and trailing silent blocks : NoNull samples used in CRC calculations : YesUsed interface : Native Win32 interface for Win NT & 2000
Used output format : User Defined EncoderSelected bitrate : 768 kBit/sQuality : HighAdd ID3 tag : NoCommand line compressor : C:\Program Files (x86)\Exact Audio Copy\Flac\flac.exeAdditional command line options : -V -8 -T "Genre=%genre%" -T "Artist=%artist%" -T "Title=%title%" -T "Album=%albumtitle%" -T "Date=%year%" -T "Tracknumber=%tracknr%" -T "Comment=%comment%" %source%
TOC of the extracted CD
Track | Start | Length | Start sector | End sector --------------------------------------------------------- 1 | 0:00.37 | 5:01.50 | 37 | 22661 2 | 5:02.12 | 5:56.48 | 22662 | 49409 3 | 10:58.60 | 3:18.42 | 49410 | 64301 4 | 14:17.27 | 5:06.28 | 64302 | 87279 5 | 19:23.55 | 4:46.07 | 87280 | 108736 6 | 24:09.62 | 6:02.60 | 108737 | 135946 7 | 30:12.47 | 4:15.30 | 135947 | 155101 8 | 34:28.02 | 5:08.18 | 155102 | 178219
Range status and errors
Selected range
Filename H:\dafnaplus\LLG\Firm - Mean Business\The Firm - Mean Business (7 81628-2).wav
Peak level 100.0 % Extraction speed 1.7 X Range quality 100.0 % Test CRC 96084967 Copy CRC 96084967 Copy OK
No errors occurred
AccurateRip summary
Track 1 accurately ripped (confidence 29) [8462440B] (AR v2)Track 2 accurately ripped (confidence 28) [9E316DA9] (AR v2)Track 3 accurately ripped (confidence 28) [0DE05971] (AR v2)Track 4 accurately ripped (confidence 28) [D57CE826] (AR v2)Track 5 accurately ripped (confidence 28) [AC170612] (AR v2)Track 6 accurately ripped (confidence 27) [CC90E479] (AR v2)Track 7 accurately ripped (confidence 28) [421B3DAA] (AR v2)Track 8 accurately ripped (confidence 29) [B6486247] (AR v2)
All tracks accurately ripped
End of status report
---- CUETools DB Plugin V2.1.6
[CTDB TOCID: EgwmsfcX9sAWgHkIpQl65zJGGQg-] foundSubmit result: EgwmsfcX9sAWgHkIpQl65zJGGQg- has been confirmedTrack | CTDB Status 1 | (32/34) Accurately ripped 2 | (32/34) Accurately ripped 3 | (34/34) Accurately ripped 4 | (33/34) Accurately ripped 5 | (33/34) Accurately ripped 6 | (32/34) Accurately ripped 7 | (33/34) Accurately ripped 8 | (31/34) Accurately ripped
==== Log checksum D47FC2F2A6839566294754CC5C31994F9F540105B10288E08E12A10CCE7AF704 ====

DR Log

foobar2000 1.3.16 / Dynamic Range Meter 1.1.1log date: 2018-08-25 10:44:55
--------------------------------------------------------------------------------Analyzed: The Firm / Mean Business (7 81628-2)--------------------------------------------------------------------------------
DR Peak RMS Duration Track--------------------------------------------------------------------------------DR12 0.00 dB -14.50 dB 5:02 01-Fortune HunterDR13 -0.80 dB -15.24 dB 5:57 02-CadillacDR12 -1.00 dB -15.97 dB 3:19 03-All The Kings HorsesDR13 -1.20 dB -16.49 dB 5:06 04-Live In PeaceDR12 -1.00 dB -14.48 dB 4:46 05-Tear Down The WallsDR12 -0.80 dB -15.27 dB 6:03 06-DreamingDR12 -0.80 dB -14.89 dB 4:15 07-Free To LiveDR10 -0.80 dB -14.07 dB 5:08 08-Spirit Of Love--------------------------------------------------------------------------------
Number of tracks: 8Official DR value: DR12
Samplerate: 44100 HzChannels: 2Bits per sample: 16Bitrate: 858 kbpsCodec: FLAC================================================================================

Back, Disc, Matrix

-

If you like the topic, please click share to help develop our site.

To download the file disable ad blocking, and reload the page.

disable adblock How to disable ad blocking?

Download by magnet link 270 MB Download Torrent

Login using:

Similar topics

(Hard Rock) Tarque - Tarque - 2018, MP3, 320 kbps
 90 MB   0 | 0   06-Oct-18 11:00   252
(Comedy Rock) Tenacious D - Post-Apocalypto - 2018, MP3, 320 kbps
 71 MB   0 | 0   02-Nov-18 11:00   86


   
Current time is: 18-Jul 12:10 :: All times are UTC + 3