The Law - The Law- -Жанр: Arena Rock/Classic Rock
Страна-производитель диска: USA
Год издания диска: 1991
Лейбл: Atlantic
Номер по каталогу: 7 82195-2
Страна исполнителя: UK
Аудио кодек: FLAC (*.flac)
Тип рипа: image+.cue
Битрейт аудио: lossless
Продолжительность: 47:14
Источник: dafnaplus
Наличие сканов в содержимом раздачи: да, dpi 600
Трэклист:
01. For A Little Ride 3:55
02. Miss You In A Heartbeat 4:31
03. Stone Cold 4:15
04. Come Save Me (Julianne) 4:00
05. Laying Down The Law 4:26
06. Nature Of The Beast 3:55
07. Stone 5:13
08. Anything For You 3:57
09. Best Of My Love 4:36
10. Tough Love 3:46
11. Missing You Bad Girl 4:40
-

Лог создания рипа

Exact Audio Copy V1.3 from 2. September 2016
EAC extraction logfile from 19. August 2018, 11:18
The Law / The Law (7 82195-2)
Used drive : ASUS DRW-24D5MT Adapter: 1 ID: 0
Read mode : SecureUtilize accurate stream : YesDefeat audio cache : YesMake use of C2 pointers : No
Read offset correction : 6Overread into Lead-In and Lead-Out : NoFill up missing offset samples with silence : YesDelete leading and trailing silent blocks : NoNull samples used in CRC calculations : YesUsed interface : Native Win32 interface for Win NT & 2000
Used output format : User Defined EncoderSelected bitrate : 768 kBit/sQuality : HighAdd ID3 tag : NoCommand line compressor : C:\Program Files (x86)\Exact Audio Copy\Flac\flac.exeAdditional command line options : -V -8 -T "Genre=%genre%" -T "Artist=%artist%" -T "Title=%title%" -T "Album=%albumtitle%" -T "Date=%year%" -T "Tracknumber=%tracknr%" -T "Comment=%comment%" %source%
TOC of the extracted CD
Track | Start | Length | Start sector | End sector --------------------------------------------------------- 1 | 0:00.33 | 3:54.62 | 33 | 17644 2 | 3:55.20 | 4:31.18 | 17645 | 37987 3 | 8:26.38 | 4:15.05 | 37988 | 57117 4 | 12:41.43 | 4:00.05 | 57118 | 75122 5 | 16:41.48 | 4:25.50 | 75123 | 95047 6 | 21:07.23 | 3:54.50 | 95048 | 112647 7 | 25:01.73 | 5:13.05 | 112648 | 136127 8 | 30:15.03 | 3:56.67 | 136128 | 153894 9 | 34:11.70 | 4:36.20 | 153895 | 174614 10 | 38:48.15 | 3:45.53 | 174615 | 191542 11 | 42:33.68 | 4:40.00 | 191543 | 212542
Range status and errors
Selected range
Filename H:\dafnaplus\The Law\The Law - The Law (7 82195-2).wav
Peak level 100.0 % Extraction speed 1.7 X Range quality 100.0 % Test CRC 1925C010 Copy CRC 1925C010 Copy OK
No errors occurred
AccurateRip summary
Track 1 accurately ripped (confidence 45) [84EB95B0] (AR v2)Track 2 accurately ripped (confidence 45) [CD3AAEB4] (AR v2)Track 3 accurately ripped (confidence 46) [2558E743] (AR v2)Track 4 accurately ripped (confidence 45) [5E4088CA] (AR v2)Track 5 accurately ripped (confidence 45) [78E944FF] (AR v2)Track 6 accurately ripped (confidence 45) [9371CE8E] (AR v2)Track 7 accurately ripped (confidence 46) [A49CB24E] (AR v2)Track 8 accurately ripped (confidence 45) [5F4ACFAD] (AR v2)Track 9 accurately ripped (confidence 44) [E9F1543F] (AR v2)Track 10 accurately ripped (confidence 40) [47809297] (AR v2)Track 11 accurately ripped (confidence 42) [A004A9E7] (AR v2)
All tracks accurately ripped
End of status report
---- CUETools DB Plugin V2.1.6
[CTDB TOCID: s9kPguYkzFH4O9JKG0ei12Bi8uQ-] foundSubmit result: s9kPguYkzFH4O9JKG0ei12Bi8uQ- has been confirmedTrack | CTDB Status 1 | (50/51) Accurately ripped 2 | (49/51) Accurately ripped 3 | (50/51) Accurately ripped 4 | (50/51) Accurately ripped 5 | (50/51) Accurately ripped 6 | (51/51) Accurately ripped 7 | (51/51) Accurately ripped 8 | (51/51) Accurately ripped 9 | (51/51) Accurately ripped 10 | (50/51) Accurately ripped 11 | (50/51) Accurately ripped
==== Log checksum 426C137AF2B209F775836EB8D711F5F8D6574B5902A9F0E4B0F85720590B93F2 ====

DR Log

foobar2000 1.3.16 / Dynamic Range Meter 1.1.1log date: 2018-08-19 13:52:39
--------------------------------------------------------------------------------Analyzed: The Law / The Law (7 82195-2)--------------------------------------------------------------------------------
DR Peak RMS Duration Track--------------------------------------------------------------------------------DR12 -0.05 dB -13.19 dB 3:55 01-For A Little RideDR12 -0.24 dB -14.44 dB 4:31 02-Miss You In A HeartbeatDR13 -0.24 dB -14.36 dB 4:15 03-Stone ColdDR13 -0.20 dB -14.96 dB 4:00 04-Come Save Me (Julianne)DR11 -0.27 dB -14.13 dB 4:26 05-Laying Down The LawDR12 0.00 dB -13.86 dB 3:55 06-Nature Of The BeastDR13 0.00 dB -15.29 dB 5:13 07-StoneDR14 0.00 dB -15.57 dB 3:57 08-Anything For YouDR11 -1.27 dB -14.19 dB 4:36 09-Best Of My LoveDR13 -0.24 dB -14.21 dB 3:46 10-Tough LoveDR12 -0.64 dB -15.91 dB 4:40 11-Missing You Bad Girl--------------------------------------------------------------------------------
Number of tracks: 11Official DR value: DR12
Samplerate: 44100 HzChannels: 2Bits per sample: 16Bitrate: 892 kbpsCodec: FLAC================================================================================

Back, Disc, Matrix

-

If you like the topic, please click share to help develop our site.

To download the file disable ad blocking, and reload the page.

disable adblock How to disable ad blocking?

Download by magnet link 358 MB Download Torrent

Login using:

Similar topics

(Classic Rock) VA - 70\'s Classic Arena Rock - 2017, MP3, 320 kbps
 233 MB   0 | 0   31-Dec-18 13:46   0
(Classic Rock) VA - 80\'s Classic Arena Rock - 2018, MP3, 320 kbps
 302 MB   0 | 0   31-Dec-18 13:46   2


   
Current time is: 17-Feb 17:40 :: All times are UTC + 3