-Ifsounds (If) / Коллекция- -
Жанр: Crossover Prog
Носитель: WEB
Год издания: 2006-2015
Страна исполнителя (группы): Italy
Аудиокодек: FLAC (*.flac)
Тип рипа: tracks
Битрейт аудио: lossless
Источник (релизер): bandcamp
Наличие сканов в содержимом раздачи: нет

2006 - The Stairway (a.k.a. If) [39:52]

Tracklist:
01. Close Your Eyes (4:36)
02. Uneasy Sleep (Part 1) (2:19)
03. The Stairway (2:26)
04. Uneasy Sleep (Part 2) (3:08)
05. 05 Where Have You Been (4:34)
06. Like A Bird (8:36)
07. Missing (4:11)
08. Uneasy Sleep (Part 3) (1:49)
09. It's Just Me (3:34)
10. Find Your Way (4:39)
Line-up / Musicians:
Claudio Lapenna – piano, keyboards, vocals.
Dario Lastella – guitars, sequencing, vocals.
Franco Bussoli – bass.
Paolo De Santis – vocals.

Лог проверки качества

-----------------------
DON'T MODIFY THIS FILE
-----------------------
PERFORMER: auCDtect Task Manager, ver. 1.6.0 RC1 build 1.6.0.1Copyright (c) 2008-2010 y-soft. All rights reservedhttp://y-soft.org
ANALYZER: auCDtect: CD records authenticity detector, version 0.8.2Copyright (c) 2004 Oleg Berngardt. All rights reserved.Copyright (c) 2004 Alexander Djourik. All rights reserved.
FILE: 10. Find Your Way.flac Size: 31028553 Hash: 393FEE2973D4B170A62538F25FE43FAE Accuracy: -m0 Conclusion: CDDA 99% Signature: 4C75B921B6B3F9793EB6CC5D578C1C1228FD41C0FILE: 09. It's Just Me.flac Size: 20117546 Hash: 5B705C583E98F494D208EC5D14645724 Accuracy: -m0 Conclusion: CDDA 100% Signature: E60B4419C223C2A188ECAF974CAA7B76C425CF73FILE: 08. Uneasy Sleep (Part 3).flac Size: 12041372 Hash: 306F2A2F228D67BDFBC7CA0CBE90E64D Accuracy: -m0 Conclusion: CDDA 100% Signature: 3870337F5947F18F0CB7D333E2C58821B56E5F09FILE: 07. Missing.flac Size: 28065011 Hash: 75A1B308346BBA5C9435B56350799F64 Accuracy: -m0 Conclusion: CDDA 100% Signature: B24DC748D7B827D53CC4E5E89D89F959D2FC9361FILE: 06. Like A Bird.flac Size: 53486857 Hash: 1E83B08FB32FF601090B3359F6BB559B Accuracy: -m0 Conclusion: CDDA 100% Signature: DC2CF7EFE96DAA8D15340EF6FC5F3342D3710CD9FILE: 05. 05 Where Have You Been.flac Size: 27111116 Hash: 6BDDC8220F45146DFF520F9C61663B7A Accuracy: -m0 Conclusion: CDDA 100% Signature: 52FC3E9C34BAA9D2DA0CC90E0B3D7D1270A2CB11FILE: 04. Uneasy Sleep (Part 2).flac Size: 18409857 Hash: A1E928B545C0F95CF780D15AE1CCECF7 Accuracy: -m0 Conclusion: CDDA 100% Signature: F03AA3595EFB4F273AB3CAF3422BB7AF77E10D94FILE: 03. The Stairway.flac Size: 17270063 Hash: F1706D978ED61896628652DAB2A94813 Accuracy: -m0 Conclusion: CDDA 100% Signature: AE610C203FA3A41E504987E60CDE597A730AF7F5FILE: 02. Uneasy Sleep (Part 1).flac Size: 14154184 Hash: 97FA6E7B51719B0F434EDEF8027BEEA8 Accuracy: -m0 Conclusion: CDDA 99% Signature: 29D96CFD7A8064D3116A7F39D11170C3BC004BBAFILE: 01. Close Your Eyes.flac Size: 27193684 Hash: 66E462D8D3FF1393A408ED3D28864DBF Accuracy: -m0 Conclusion: CDDA 100% Signature: FCECF79888804582F589E13A2EF7F09CEB102FE7

Лог DRM

foobar2000 1.3.9 / Dynamic Range Meter 1.1.1log date: 2018-09-02 15:49:35
--------------------------------------------------------------------------------Analyzed: if / The Stairway--------------------------------------------------------------------------------
DR Peak RMS Duration Track--------------------------------------------------------------------------------DR11 -2.23 dB -16.23 dB 4:36 01-Close Your EyesDR9 -0.22 dB -11.12 dB 2:19 02-Uneasy Sleep (Part 1)DR10 -0.56 dB -11.64 dB 2:26 03-The StairwayDR11 0.00 dB -13.42 dB 3:08 04-Uneasy Sleep (Part 2)DR11 -1.35 dB -14.22 dB 4:34 05-05 Where Have You BeenDR11 0.00 dB -13.14 dB 8:36 06-Like A BirdDR10 -0.11 dB -11.55 dB 4:11 07-MissingDR9 -0.11 dB -10.52 dB 1:49 08-Uneasy Sleep (Part 3)DR11 -0.17 dB -15.67 dB 3:34 09-It's Just MeDR10 -0.13 dB -12.34 dB 4:39 10-Find Your Way--------------------------------------------------------------------------------
Number of tracks: 10Official DR value: DR10
Samplerate: 44100 HzChannels: 2Bits per sample: 16Bitrate: 888 kbpsCodec: FLAC================================================================================

2011 - Unusual Roots (EP) [22:34]

Tracklist:
01. Don't Go (4:52)
02. Loser (7:09)
03. Incomunicabilità (3:37)
04. Aprile (alternative version) (2:21)
05. Loser (instrumental) (4:35)
Line-up / Musicians:
Franco Bussoli – bass.
Enzo Bellocchio – drums.
Claudio Lapenna – piano, keyboards, vocals.
Dario Lastella – guitars, synth, vocals.
Guests:
Phil Naro – Vocals on Don’t go.
Andrea Garrison – Vocals on Loser.
Luca Di Pardo – Drums on Loser and Incomunicabilità.
Núria Palau, Alexandra Milas, Maria Miele and Armando Varriano – Strings on Aprile.

Лог проверки качества

-----------------------
DON'T MODIFY THIS FILE
-----------------------
PERFORMER: auCDtect Task Manager, ver. 1.6.0 RC1 build 1.6.0.1Copyright (c) 2008-2010 y-soft. All rights reservedhttp://y-soft.org
ANALYZER: auCDtect: CD records authenticity detector, version 0.8.2Copyright (c) 2004 Oleg Berngardt. All rights reserved.Copyright (c) 2004 Alexander Djourik. All rights reserved.
FILE: 05. Loser (instrumental).flac Size: 21629313 Hash: 86496895E223EBB3EE3CA80BFD4A9238 Accuracy: -m0 Conclusion: MPEG 100% Signature: 464B478FEB700F983547C10A4964EB3014F52EAAFILE: 04. Aprile (alternative version).flac Size: 12914215 Hash: D204834260C588BAC883B84CB0BF9579 Accuracy: -m0 Conclusion: MPEG 95% Signature: 1BDD114D57E7A8CEBE7ED0109A23E89CB1B814FCFILE: 03. Incomunicabilità.flac Size: 22022364 Hash: 8533522C0E1C8B0D07C14C611489731D Accuracy: -m0 Conclusion: MPEG 95% Signature: DADECBFFCD6739F434637FA07678EDC5330549D4FILE: 02. Loser.flac Size: 41252621 Hash: 2CD385FB84EF9D9D7583BBA79CBBA2C5 Accuracy: -m0 Conclusion: MPEG 95% Signature: 7C12D4A0417EE9275B2E060F34C4047C9FB1CC83FILE: 01. Don't Go.flac Size: 30709018 Hash: F028020E87F008F9C6968E2B87921479 Accuracy: -m0 Conclusion: MPEG 95% Signature: C2ED319E1A9BA804964A2BB4610280A681534F38

Скриншот спектра частот



Лог DRM

foobar2000 1.3.9 / Dynamic Range Meter 1.1.1log date: 2018-09-02 15:49:48
--------------------------------------------------------------------------------Analyzed: ifsounds / Unusual Roots--------------------------------------------------------------------------------
DR Peak RMS Duration Track--------------------------------------------------------------------------------DR6 0.00 dB -9.94 dB 4:52 01-Don't GoDR7 0.00 dB -10.83 dB 7:09 02-LoserDR7 0.00 dB -9.72 dB 3:37 03-IncomunicabilitàDR8 0.00 dB -10.85 dB 2:21 04-Aprile (alternative version)DR7 0.00 dB -10.67 dB 4:35 05-Loser (instrumental)--------------------------------------------------------------------------------
Number of tracks: 5Official DR value: DR7
Samplerate: 44100 HzChannels: 2Bits per sample: 16Bitrate: 623 kbpsCodec: FLAC================================================================================

2012 - Red Apple [1:01:43]

Tracklist:
01. Another Dawn (2:22)
02. Red Apple (5:56)
03. Web Tube Stars (3:51)
04. Messages from the Stars (4:53)
05. After (7:17)
06. They're Almost Here (6:26)
07. New World Order (5:24)
08. Red Sun Tonight (6:51)
09. Space Refugees (5:52)
10. The Crossing (5:11)
11. Christmas 2012 (7:39)
Line-up / Musicians:
Claudio Lapenna – electric and acoustic piano, keyboards, organ, synth, lead and backing vocals.
Dario Lastella – guitars, keyboards, synth, sequencers, bass guitar, ukulele, backing vocals.
Enzo Bellocchio – drums.
Federica Berchicci – lead vocals.
Franco Bussoli – bass.
Guests:
Andrea Garrison – Radio Host.
Roberto Canone – Flute and saxophone on After.
Nick Katona – as the President Nicholas Wakeman.
David Slater – as the TV anchorman.
Carmen Vera and Sun Foradada – backing vocals on Christmas 2012.

Лог проверки качества

-----------------------
DON'T MODIFY THIS FILE
-----------------------
PERFORMER: auCDtect Task Manager, ver. 1.6.0 RC1 build 1.6.0.1Copyright (c) 2008-2010 y-soft. All rights reservedhttp://y-soft.org
ANALYZER: auCDtect: CD records authenticity detector, version 0.8.2Copyright (c) 2004 Oleg Berngardt. All rights reserved.Copyright (c) 2004 Alexander Djourik. All rights reserved.
FILE: 11. Christmas 2012.flac Size: 53940711 Hash: 50D84C6ABF8D101AD213D6C487B9F43D Accuracy: -m0 Conclusion: CDDA 100% Signature: 9BBAE018B94E512E9D110DBFDA1D7F7977890D61FILE: 10. The Crossing.flac Size: 16460047 Hash: 7E2B13CA7FEE5BE67ACA3FEE9D47EEC9 Accuracy: -m0 Conclusion: CDDA 100% Signature: F58D0F9BFF0C19E8F58772D767FDAFAF41D83F8BFILE: 09. Space Refugees.flac Size: 42612314 Hash: EAAEFD8A0FF0BE70DBA568BE032B7974 Accuracy: -m0 Conclusion: CDDA 99% Signature: 5D2ED106518E033E3AFFD5CA7FD10F4EFD5F1B82FILE: 08. Red Sun Tonight.flac Size: 49267714 Hash: 7D0D2ABF4B2D12639533081ACEC0BF11 Accuracy: -m0 Conclusion: CDDA 100% Signature: D0457228A9E7BCDC0E5A1CA5682A8956072A2CB1FILE: 07. New World Order.flac Size: 33779563 Hash: E978F69246F406039891579A49A1D0A2 Accuracy: -m0 Conclusion: CDDA 100% Signature: 168265DA9D16ACE04906C06AB73C5D93EF6783A5FILE: 06. They're Almost Here.flac Size: 41840344 Hash: 5B89D5D65507E7A577BA77A15AC7F2E1 Accuracy: -m0 Conclusion: CDDA 100% Signature: E973E3D446785D98A1FB67015D4E37E3B2B84EAAFILE: 05. After.flac Size: 47159500 Hash: D4DC33984268C6F8618571D330912CA7 Accuracy: -m0 Conclusion: CDDA 100% Signature: 154837B9DBADB9AB2574E0EB552BBFA5511A81A0FILE: 04. Messages from the Stars.flac Size: 31192339 Hash: 66E96B5FB02762EAF2D08ECE6F09801E Accuracy: -m0 Conclusion: CDDA 100% Signature: F5A64E49C2AD54335211B5FD8971A1AD0BBE28E7FILE: 03. Web Tube Stars.flac Size: 30970286 Hash: 7C762EF97B6A955BC1554F7E92B33867 Accuracy: -m0 Conclusion: CDDA 100% Signature: 967DD5857AA94B1ECD4B79F5E91A2E399B2A3531FILE: 02. Red Apple.flac Size: 41042962 Hash: C77252A29C6B7386EBD60BDC0600EB66 Accuracy: -m0 Conclusion: CDDA 100% Signature: 1E961925717391784AF21AF7ABA0C4DC39F91600FILE: 01. Another Dawn.flac Size: 15171064 Hash: 4246E53F11911F2E55CBD7DCDCB42527 Accuracy: -m0 Conclusion: CDDA 100% Signature: 8F3CA0E9FE3A227EE58095BBD19C133A38ACD3FE

Лог DRM

foobar2000 1.3.9 / Dynamic Range Meter 1.1.1log date: 2018-09-02 15:50:21
--------------------------------------------------------------------------------Analyzed: ifsounds / Red Apple--------------------------------------------------------------------------------
DR Peak RMS Duration Track--------------------------------------------------------------------------------DR8 -0.15 dB -11.22 dB 2:22 01-Another DawnDR9 -0.15 dB -10.93 dB 5:56 02-Red AppleDR7 -0.15 dB -8.10 dB 3:51 03-Web Tube StarsDR9 -0.15 dB -13.25 dB 4:53 04-Messages from the StarsDR9 -0.15 dB -12.14 dB 7:17 05-AfterDR9 0.00 dB -12.93 dB 6:26 06-They're Almost HereDR7 -0.15 dB -10.31 dB 5:24 07-New World OrderDR9 -0.15 dB -11.08 dB 6:51 08-Red Sun TonightDR9 -0.15 dB -12.06 dB 5:52 09-Space RefugeesDR12 -1.47 dB -19.24 dB 5:11 10-The CrossingDR8 -0.15 dB -10.90 dB 7:39 11-Christmas 2012--------------------------------------------------------------------------------
Number of tracks: 11Official DR value: DR9
Samplerate: 44100 HzChannels: 2Bits per sample: 16Bitrate: 931 kbpsCodec: FLAC================================================================================

2015 - Reset (English Version) [43:29]

Tracklist:
01. When I Was Born Again (6:03)
02. Fr9364 (4:02)
03. 40-14 (5:02)
04. Laura (4:15)
05. I've Never Hated Anyone (3:26)
06. Run Away (5:25)
07. Flashback (2:37)
08. Fading to Blue (4:39)
09. Reset (4:08)
10. The Tide (3:52)
Line-up / Musicians:
Fabio De Libertis – bass guitar.
Claudio Lapenna – acoustic and electric piano, keyboards, organ, vocals.
Dario Lastella – guitars, keyboards, synths, vocals.
Gianni Manariti – drums, percussions, vocals.
Runal – lead vocals.
Guests:
Alessandra Santovito, Francesco Forgione and Alessandro Pensa (Hexperos) – flute and strings on Laura.

Лог проверки качества

-----------------------
DON'T MODIFY THIS FILE
-----------------------
PERFORMER: auCDtect Task Manager, ver. 1.6.0 RC1 build 1.6.0.1Copyright (c) 2008-2010 y-soft. All rights reservedhttp://y-soft.org
ANALYZER: auCDtect: CD records authenticity detector, version 0.8.2Copyright (c) 2004 Oleg Berngardt. All rights reserved.Copyright (c) 2004 Alexander Djourik. All rights reserved.
FILE: 10. The Tide.flac Size: 26742361 Hash: 7900D0A5CA040D24FFF8BD2F6E43FD56 Accuracy: -m0 Conclusion: MPEG 95% Signature: 1436026F504167AE7FA5C674B54A398A9065DC78FILE: 09. Reset.flac Size: 26652040 Hash: 4AB5422A1BFF2CBB4674CB6CA7484005 Accuracy: -m0 Conclusion: MPEG 95% Signature: 03C54DAE1E8C914C223885EEB9A2A8BDE7A8BBC9FILE: 08. Fading to Blue.flac Size: 30616578 Hash: 208AEEA1A091577E227B9F08C30499DF Accuracy: -m0 Conclusion: MPEG 95% Signature: 0EE0834E34F348FAD22FA4E1B30AAF04AC4D4F65FILE: 07. Flashback.flac Size: 18214213 Hash: 7CD5960A04108917665C5C8B11F15C94 Accuracy: -m0 Conclusion: MPEG 95% Signature: C94A6103D21ACB699F93DBAD3C71DF7667426052FILE: 06. Run Away.flac Size: 38080810 Hash: E4909333B86F4837B7A304B97FFDCE57 Accuracy: -m0 Conclusion: MPEG 95% Signature: 3088ED535278D73D8A192F08EDF9F3523966C658FILE: 05. I've Never Hated Anyone.flac Size: 25288458 Hash: 1334AEA854DEA3E151275D0986C9EF4B Accuracy: -m0 Conclusion: MPEG 95% Signature: B73A1868A9D8698984C9003FDCC143994F13C50AFILE: 04. Laura.flac Size: 25638305 Hash: E5C48B007E1DDABA73C624B60A200ACF Accuracy: -m0 Conclusion: MPEG 95% Signature: 5163DA77D203C1FDA6A527D85A062F791BE07B4DFILE: 03. 40-14.flac Size: 32815282 Hash: 53D8F741DC352FE63E52C1EA33DB0234 Accuracy: -m0 Conclusion: MPEG 95% Signature: E0CCD4384F517D50A5BDCF78FE6EE52DF8D15382FILE: 02. Fr9364.flac Size: 27134981 Hash: B712C779B592525C48F2865E1AEC2721 Accuracy: -m0 Conclusion: MPEG 95% Signature: 4151D03114AB945391EC1EFA5A8260918706A27EFILE: 01. When I Was Born Again.flac Size: 36723559 Hash: 672D80392B067D443794EB7F61A8683A Accuracy: -m0 Conclusion: MPEG 95% Signature: 50A5F2E671787EADE0A796150550ACA239F00CE1

Скриншот спектра частот



Лог DRM

foobar2000 1.3.9 / Dynamic Range Meter 1.1.1log date: 2018-09-02 15:50:42
--------------------------------------------------------------------------------Analyzed: ifsounds / Reset (English Version)--------------------------------------------------------------------------------
DR Peak RMS Duration Track--------------------------------------------------------------------------------DR6 0.00 dB -9.20 dB 6:03 01-When I Was Born AgainDR8 0.00 dB -9.46 dB 4:02 02-Fr9364DR7 0.00 dB -9.54 dB 5:02 03-40-14DR10 -0.23 dB -14.57 dB 4:15 04-LauraDR6 0.00 dB -7.41 dB 3:26 05-I've Never Hated AnyoneDR7 0.00 dB -10.00 dB 5:25 06-Run AwayDR8 0.00 dB -9.48 dB 2:37 07-FlashbackDR7 0.00 dB -10.95 dB 4:39 08-Fading to BlueDR7 0.00 dB -9.48 dB 4:08 09-ResetDR6 0.00 dB -7.57 dB 3:52 10-The Tide--------------------------------------------------------------------------------
Number of tracks: 10Official DR value: DR7
Samplerate: 44100 HzChannels: 2Bits per sample: 16Bitrate: 906 kbpsCodec: FLAC================================================================================

2015 - Reset (Italian Version) [43:28]

Tracklist:
01. Sono Nato Due Volte (6:03)
02. Fr9364 (4:02)
03. Forty-Fourteen (5:02)
04. Laura (4:15)
05. Io Non Volevo Odiarti (3:25)
06. Scappa Via (5:25)
07. Flashback (2:37)
08. Svanisco Nel Blu (4:39)
09. Reset (4:08)
10. La Marea (3:51)
Line-up / Musicians:
Fabio De Libertis – basso.
Claudio Lapenna – piano acustico ed elettrico, tastiere, organo, voce.
Dario Lastella – chitarre, tastiere, synth, voce.
Gianni Manariti – batteria, percussioni, voce.
Runal – voce solista.
Ospiti:
Alessandra Santovito, Francesco Forgione e Alessandro Pensa (Hexperos) – flauto e archi su Laura.

Лог проверки качества

-----------------------
DON'T MODIFY THIS FILE
-----------------------
PERFORMER: auCDtect Task Manager, ver. 1.6.0 RC1 build 1.6.0.1Copyright (c) 2008-2010 y-soft. All rights reservedhttp://y-soft.org
ANALYZER: auCDtect: CD records authenticity detector, version 0.8.2Copyright (c) 2004 Oleg Berngardt. All rights reserved.Copyright (c) 2004 Alexander Djourik. All rights reserved.
FILE: 10. La Marea.flac Size: 26685272 Hash: 05107A8FB878BFEA413329528BF5D85E Accuracy: -m0 Conclusion: MPEG 95% Signature: B0D28C484AE0BB8357E386A60638CDBCFCC32D3AFILE: 09. Reset.flac Size: 26656966 Hash: 74D5367851EF52853F758F2D9C02C6A4 Accuracy: -m0 Conclusion: MPEG 95% Signature: CC4B4BF6BFD9994D9C70C434451298FBD8ED473DFILE: 08. Svanisco Nel Blu.flac Size: 30494373 Hash: ECD3005B2EE0F67F45C1653AB915AECB Accuracy: -m0 Conclusion: MPEG 95% Signature: 79BD93D8FD8E6FC863373E77C652817892A4D0A6FILE: 07. Flashback.flac Size: 18298882 Hash: 4CF95749F6AB0C26ADA22C009BF82934 Accuracy: -m0 Conclusion: MPEG 95% Signature: 7BCAAF07CA39A924DF0634C6712E7731C804C6C8FILE: 06. Scappa Via.flac Size: 38322854 Hash: 9C0EB59787E74D6B25D69FDAC3465F31 Accuracy: -m0 Conclusion: MPEG 95% Signature: 690EABA796C699323C9444A5061CFC712C7F444BFILE: 05. Io Non Volevo Odiarti.flac Size: 25294076 Hash: EE39CD2C610620A252587A5DDB23CEF0 Accuracy: -m0 Conclusion: MPEG 95% Signature: 1A4142A9F289B03EC419DB9AC2029A5A4936D707FILE: 04. Laura.flac Size: 25797885 Hash: 72928B58A12933780D9F200278EB148A Accuracy: -m0 Conclusion: MPEG 95% Signature: 830C4797711A6064F0A70AFD558B0C9D980416F0FILE: 03. Forty-Fourteen.flac Size: 32612452 Hash: BF7AB9436FC67AD880890D592A9A5F12 Accuracy: -m0 Conclusion: MPEG 95% Signature: E48AC74DD452E00C5B9E015E83D1ED36B35093D4FILE: 02. Fr9364.flac Size: 27140740 Hash: 02C0D036137D32EC4252A42B73AFDE07 Accuracy: -m0 Conclusion: MPEG 95% Signature: 6EE33209BD0E32A6B53EE660C89194A1C2FB5B8AFILE: 01. Sono Nato Due Volte.flac Size: 36993870 Hash: 1B19A8FAC9B351A657D78E85E72358B8 Accuracy: -m0 Conclusion: MPEG 95% Signature: FC1712A6464007AF1B83056D387A726DF99D7AFC

Скриншот спектра частот



Лог DRM

foobar2000 1.3.9 / Dynamic Range Meter 1.1.1log date: 2018-09-02 15:51:02
--------------------------------------------------------------------------------Analyzed: ifsounds / Reset (Italian Version)--------------------------------------------------------------------------------
DR Peak RMS Duration Track--------------------------------------------------------------------------------DR7 0.00 dB -9.39 dB 6:03 01-Sono Nato Due VolteDR8 0.00 dB -9.46 dB 4:02 02-Fr9364DR7 0.00 dB -9.67 dB 5:02 03-Forty-FourteenDR10 -0.28 dB -14.30 dB 4:15 04-LauraDR6 0.00 dB -7.22 dB 3:25 05-Io Non Volevo OdiartiDR7 0.00 dB -9.90 dB 5:25 06-Scappa ViaDR8 0.00 dB -9.29 dB 2:37 07-FlashbackDR7 0.00 dB -10.67 dB 4:39 08-Svanisco Nel BluDR7 0.00 dB -9.48 dB 4:08 09-ResetDR6 0.00 dB -7.85 dB 3:51 10-La Marea--------------------------------------------------------------------------------
Number of tracks: 10Official DR value: DR7
Samplerate: 44100 HzChannels: 2Bits per sample: 16Bitrate: 907 kbpsCodec: FLAC================================================================================
-Релиз от группы:

If you like the topic, please click share to help develop our site.

To download the file disable ad blocking, and reload the page.

disable adblock How to disable ad blocking?

Download by magnet link 1.27 GB Download Torrent

Login using:

Similar topics

(Crossover Prog) [WEB] Lebowski - Galactica - 2019, FLAC (tracks), lossless
 413 MB   0 | 0   26-Jan-19 23:40   3


   
Current time is: 17-Feb 16:30 :: All times are UTC + 3