Phideaux - Infernal
Жанр: Crossover Prog
Носитель: CD
Год выпуска диска: 2018
Страна: USA
Производитель диска: Bloodfish Music / 82677906885
Аудио кодек: FLAC
Тип рипа: tracks+.cue
Битрейт аудио: lossless
Продолжительность: 42:08 + 46:51
Наличие сканов в содержимом раздачи:
Состав:
- Valerie Gracious / lead vocals, piano
- Phideaux Xavier / vocals, piano, various guitars
- Gabriel Moffat / electric guitar
- Ariel Farber / vocals, violin
- Molly Ruttan / vocals, percussion
- Linda Ruttan-Moldawsky / vocals
- Johnn Unicorn / vocals, keyboards
- Mark Sherkus / keyboards
- Matthew Kennedy / bass guitar
- Rich 'Bloody' Hutchins / drums
Доп. информация: http://www.progarchives.com/artist.asp?id=2379

CD1

Продолжительность: 42:08
Трэклист:
01. Cast Out and Cold (5:32)
02. The Error Lives On (7:14)
03. Crumble (0:55)
04. Inquisitor (8:22)
05. We Only Have Eyes for You (4:00)
06. Sourdome (1:30)
07. The Walker (4:39)
08. Wake the Sleeper (1:29)
09. C99 (3:24)
10. Tumbleweed (4:59)

Отчёт EAC

Exact Audio Copy V1.1 from 23. June 2015
EAC extraction logfile from 1. September 2018, 16:53
Phideaux / Infernal (CD1)
Used drive : ATAPI iHBS112 2 Adapter: 1 ID: 0
Read mode : SecureUtilize accurate stream : YesDefeat audio cache : YesMake use of C2 pointers : No
Read offset correction : 6Overread into Lead-In and Lead-Out : NoFill up missing offset samples with silence : YesDelete leading and trailing silent blocks : NoNull samples used in CRC calculations : YesUsed interface : Native Win32 interface for Win NT & 2000Gap handling : Appended to previous track
Used output format : User Defined EncoderSelected bitrate : 768 kBit/sQuality : HighAdd ID3 tag : NoCommand line compressor : C:\Program Files (x86)\Exact Audio Copy\FLAC\FLAC.EXEAdditional command line options : -8 -V -T "ARTIST=%artist%" -T "TITLE=%title%" -T "ALBUM=%albumtitle%" -T "DATE=%year%" -T "TRACKNUMBER=%tracknr%" -T "GENRE=%genre%" -T "COMMENT=%comment%" -T "BAND=%albuminterpret%" -T "ALBUMARTIST=%albuminterpret%" -T "COMPOSER=%composer%" %haslyrics%--tag-from-file=LYRICS="%lyricsfile%"%haslyrics% -T "DISCNUMBER=%cdnumber%" -T "TOTALDISCS=%totalcds%" -T "TOTALTRACKS=%numtracks%" %hascover%--picture="%coverfile%"%hascover% %source% -o %dest%
TOC of the extracted CD
Track | Start | Length | Start sector | End sector --------------------------------------------------------- 1 | 0:00.00 | 5:32.34 | 0 | 24933 2 | 5:32.34 | 7:14.39 | 24934 | 57522 3 | 12:46.73 | 0:55.71 | 57523 | 61718 4 | 13:42.69 | 8:22.12 | 61719 | 99380 5 | 22:05.06 | 4:00.24 | 99381 | 117404 6 | 26:05.30 | 1:30.46 | 117405 | 124200 7 | 27:36.01 | 4:39.10 | 124201 | 145135 8 | 32:15.11 | 1:29.49 | 145136 | 151859 9 | 33:44.60 | 3:24.36 | 151860 | 167195 10 | 37:09.21 | 4:59.23 | 167196 | 189643
Track 1
Filename C:\Music\Phideaux - Infernal\CD1\01 - Cast Out and Cold.wav
Pre-gap length 0:00:02.00
Peak level 100.0 % Extraction speed 2.1 X Track quality 100.0 % Test CRC 580567AC Copy CRC 580567AC Track not present in AccurateRip database Copy OK
Track 2
Filename C:\Music\Phideaux - Infernal\CD1\02 - The Error Lives On.wav
Peak level 99.4 % Extraction speed 2.5 X Track quality 100.0 % Test CRC 0A11AEA4 Copy CRC 0A11AEA4 Track not present in AccurateRip database Copy OK
Track 3
Filename C:\Music\Phideaux - Infernal\CD1\03 - Crumble.wav
Peak level 42.9 % Extraction speed 1.7 X Track quality 100.0 % Test CRC E6363D04 Copy CRC E6363D04 Track not present in AccurateRip database Copy OK
Track 4
Filename C:\Music\Phideaux - Infernal\CD1\04 - Inquisitor.wav
Peak level 98.9 % Extraction speed 2.9 X Track quality 100.0 % Test CRC BE4242AE Copy CRC BE4242AE Track not present in AccurateRip database Copy OK
Track 5
Filename C:\Music\Phideaux - Infernal\CD1\05 - We Only Have Eyes For You.wav
Pre-gap length 0:00:01.00
Peak level 100.0 % Extraction speed 2.2 X Track quality 99.9 % Test CRC EE2BE012 Copy CRC EE2BE012 Track not present in AccurateRip database Copy OK
Track 6
Filename C:\Music\Phideaux - Infernal\CD1\06 - Sourdome.wav
Peak level 94.2 % Extraction speed 1.4 X Track quality 99.8 % Test CRC 20F438F8 Copy CRC 20F438F8 Track not present in AccurateRip database Copy OK
Track 7
Filename C:\Music\Phideaux - Infernal\CD1\07 - The Walker.wav
Peak level 99.4 % Extraction speed 3.2 X Track quality 100.0 % Test CRC 1FDE377F Copy CRC 1FDE377F Track not present in AccurateRip database Copy OK
Track 8
Filename C:\Music\Phideaux - Infernal\CD1\08 - Wake the Sleeper.wav
Peak level 64.4 % Extraction speed 1.5 X Track quality 99.8 % Test CRC 8186EEFB Copy CRC 8186EEFB Track not present in AccurateRip database Copy OK
Track 9
Filename C:\Music\Phideaux - Infernal\CD1\09 - C99.wav
Peak level 100.0 % Extraction speed 2.3 X Track quality 99.9 % Test CRC 21ADD00E Copy CRC 21ADD00E Track not present in AccurateRip database Copy OK
Track 10
Filename C:\Music\Phideaux - Infernal\CD1\10 - Tumbleweed.wav
Peak level 98.7 % Extraction speed 3.5 X Track quality 100.0 % Test CRC B64563F1 Copy CRC B64563F1 Track not present in AccurateRip database Copy OK
None of the tracks are present in the AccurateRip database
No errors occurred
End of status report
---- CUETools DB Plugin V2.1.6
[CTDB TOCID: 7w5hqxwizc6WEmA2_ugHMm5R0T4-] foundSubmit result: 7w5hqxwizc6WEmA2_ugHMm5R0T4- has been confirmedTrack | CTDB Status 1 | (4/4) Accurately ripped 2 | (4/4) Accurately ripped 3 | (4/4) Accurately ripped 4 | (4/4) Accurately ripped 5 | (4/4) Accurately ripped 6 | (4/4) Accurately ripped 7 | (4/4) Accurately ripped 8 | (4/4) Accurately ripped 9 | (4/4) Accurately ripped 10 | (4/4) Accurately ripped
==== Log checksum 234356AFD063A54CFFB93ABAF7C2A5CEF9C31D0481706E18707E4A5C5690F0AC ====

.cue

REM DATE 2018REM DISCID 8909E00AREM COMMENT "ExactAudioCopy v1.1"PERFORMER "Phideaux"TITLE "Infernal"FILE "01 - Cast Out and Cold.wav" WAVE  TRACK 01 AUDIO    TITLE "Cast Out and Cold"    PERFORMER "Phideaux"    INDEX 01 00:00:00FILE "02 - The Error Lives On.wav" WAVE  TRACK 02 AUDIO    TITLE "The Error Lives On"    PERFORMER "Phideaux"    INDEX 01 00:00:00FILE "03 - Crumble.wav" WAVE  TRACK 03 AUDIO    TITLE "Crumble"    PERFORMER "Phideaux"    INDEX 01 00:00:00FILE "04 - Inquisitor.wav" WAVE  TRACK 04 AUDIO    TITLE "Inquisitor"    PERFORMER "Phideaux"    INDEX 01 00:00:00  TRACK 05 AUDIO    TITLE "We Only Have Eyes For You"    PERFORMER "Phideaux"    INDEX 00 08:21:12FILE "05 - We Only Have Eyes For You.wav" WAVE    INDEX 01 00:00:00FILE "06 - Sourdome.wav" WAVE  TRACK 06 AUDIO    TITLE "Sourdome"    PERFORMER "Phideaux"    INDEX 01 00:00:00FILE "07 - The Walker.wav" WAVE  TRACK 07 AUDIO    TITLE "The Walker"    PERFORMER "Phideaux"    INDEX 01 00:00:00FILE "08 - Wake the Sleeper.wav" WAVE  TRACK 08 AUDIO    TITLE "Wake the Sleeper"    PERFORMER "Phideaux"    INDEX 01 00:00:00FILE "09 - C99.wav" WAVE  TRACK 09 AUDIO    TITLE "C99"    PERFORMER "Phideaux"    INDEX 01 00:00:00FILE "10 - Tumbleweed.wav" WAVE  TRACK 10 AUDIO    TITLE "Tumbleweed"    PERFORMER "Phideaux"    INDEX 01 00:00:00

CueTools

[CUETools log; Date: 2018.09.02. 1:18:30; Version: 2.1.6][CTDB TOCID: 7w5hqxwizc6WEmA2_ugHMm5R0T4-] found.Track | CTDB Status  1   | (5/5) Accurately ripped  2   | (5/5) Accurately ripped  3   | (5/5) Accurately ripped  4   | (5/5) Accurately ripped  5   | (5/5) Accurately ripped  6   | (5/5) Accurately ripped  7   | (5/5) Accurately ripped  8   | (5/5) Accurately ripped  9   | (5/5) Accurately ripped 10   | (5/5) Accurately ripped[AccurateRip ID: 00116137-0086ac48-8909e00a] disk not present in database.
Track Peak [ CRC32 ] [W/O NULL] [ LOG ] -- 100,0 [663574D0] [B8CE00C2] 01 100,0 [580567AC] [69A1C3D9] CRC32 02 99,4 [0A11AEA4] [93414037] CRC32 03 42,9 [E6363D04] [A208CA1D] CRC32 04 98,9 [BE4242AE] [D9A6EF56] CRC32 05 100,0 [EE2BE012] [F2D37C7B] CRC32 06 94,2 [20F438F8] [3EB5E65A] CRC32 07 99,4 [1FDE377F] [41A75A22] CRC32 08 64,4 [8186EEFB] [71A02835] CRC32 09 100,0 [21ADD00E] [70F1C2D8] CRC32 10 98,7 [B64563F1] [EDFC0FCA] CRC32

CD2

Продолжительность: 46:51
Трэклист:
01. The Order of Protection (One) (4:35)
02. Metro Deathfire (4:57)
03. Transit (1:13)
04. In Dissonance We Play (2:48)
05. The Sleepers Wake (5:22)
06. The Order of Protection (Two) (4:34)
07. From Hydrogen to Love (14:03)
08. Eternal (5:46)
09. Endgame - An End (3:29)

Отчёт EAC

Exact Audio Copy V1.1 from 23. June 2015
EAC extraction logfile from 1. September 2018, 17:36
Phideaux / Infernal
Used drive : ATAPI iHBS112 2 Adapter: 1 ID: 0
Read mode : SecureUtilize accurate stream : YesDefeat audio cache : YesMake use of C2 pointers : No
Read offset correction : 6Overread into Lead-In and Lead-Out : NoFill up missing offset samples with silence : YesDelete leading and trailing silent blocks : NoNull samples used in CRC calculations : YesUsed interface : Native Win32 interface for Win NT & 2000Gap handling : Appended to previous track
Used output format : User Defined EncoderSelected bitrate : 768 kBit/sQuality : HighAdd ID3 tag : NoCommand line compressor : C:\Program Files (x86)\Exact Audio Copy\FLAC\FLAC.EXEAdditional command line options : -8 -V -T "ARTIST=%artist%" -T "TITLE=%title%" -T "ALBUM=%albumtitle%" -T "DATE=%year%" -T "TRACKNUMBER=%tracknr%" -T "GENRE=%genre%" -T "COMMENT=%comment%" -T "BAND=%albuminterpret%" -T "ALBUMARTIST=%albuminterpret%" -T "COMPOSER=%composer%" %haslyrics%--tag-from-file=LYRICS="%lyricsfile%"%haslyrics% -T "DISCNUMBER=%cdnumber%" -T "TOTALDISCS=%totalcds%" -T "TOTALTRACKS=%numtracks%" %hascover%--picture="%coverfile%"%hascover% %source% -o %dest%
TOC of the extracted CD
Track | Start | Length | Start sector | End sector --------------------------------------------------------- 1 | 0:00.00 | 4:35.17 | 0 | 20641 2 | 4:35.17 | 4:57.56 | 20642 | 42972 3 | 9:32.73 | 1:13.64 | 42973 | 48511 4 | 10:46.62 | 2:48.70 | 48512 | 61181 5 | 13:35.57 | 5:22.26 | 61182 | 85357 6 | 18:58.08 | 4:34.14 | 85358 | 105921 7 | 23:32.22 | 14:03.69 | 105922 | 169215 8 | 37:36.16 | 5:46.00 | 169216 | 195165 9 | 43:22.16 | 3:29.45 | 195166 | 210885
Track 1
Filename C:\Music\Phideaux - Infernal\CD2\01 - The Order of Protection (One).wav
Pre-gap length 0:00:02.00
Peak level 99.2 % Extraction speed 1.5 X Track quality 99.9 % Test CRC 8975EA3E Copy CRC 8975EA3E Track not present in AccurateRip database Copy OK
Track 2
Filename C:\Music\Phideaux - Infernal\CD2\02 - Metro Deathfire.wav
Peak level 100.0 % Extraction speed 2.3 X Track quality 100.0 % Test CRC B0277B95 Copy CRC B0277B95 Track not present in AccurateRip database Copy OK
Track 3
Filename C:\Music\Phideaux - Infernal\CD2\03 - Transit.wav
Peak level 96.6 % Extraction speed 1.8 X Track quality 100.0 % Test CRC 2749679C Copy CRC 2749679C Track not present in AccurateRip database Copy OK
Track 4
Filename C:\Music\Phideaux - Infernal\CD2\04 - In Dissonance We Play.wav
Peak level 100.0 % Extraction speed 2.3 X Track quality 100.0 % Test CRC DA9F0339 Copy CRC DA9F0339 Track not present in AccurateRip database Copy OK
Track 5
Filename C:\Music\Phideaux - Infernal\CD2\05 - The Sleepers Wake.wav
Peak level 100.0 % Extraction speed 2.2 X Track quality 99.9 % Test CRC C3629BFC Copy CRC C3629BFC Track not present in AccurateRip database Copy OK
Track 6
Filename C:\Music\Phideaux - Infernal\CD2\06 - The Order of Protection (Two).wav
Peak level 100.0 % Extraction speed 2.2 X Track quality 99.9 % Test CRC 41B49B4C Copy CRC 41B49B4C Track not present in AccurateRip database Copy OK
Track 7
Filename C:\Music\Phideaux - Infernal\CD2\07 - From Hydrogen to Love.wav
Pre-gap length 0:00:01.00
Peak level 100.0 % Extraction speed 3.2 X Track quality 99.9 % Test CRC DEDF5570 Copy CRC DEDF5570 Track not present in AccurateRip database Copy OK
Track 8
Filename C:\Music\Phideaux - Infernal\CD2\08 - Eternal.wav
Peak level 100.0 % Extraction speed 3.6 X Track quality 100.0 % Test CRC C7E41D84 Copy CRC C7E41D84 Track not present in AccurateRip database Copy OK
Track 9
Filename C:\Music\Phideaux - Infernal\CD2\09 - Endgame - An End.wav
Peak level 99.2 % Extraction speed 3.5 X Track quality 100.0 % Test CRC 41EE4D5A Copy CRC 41EE4D5A Track not present in AccurateRip database Copy OK
None of the tracks are present in the AccurateRip database
No errors occurred
End of status report
---- CUETools DB Plugin V2.1.6
[CTDB TOCID: H7LAB9odYIB3qW2UdJ26EFTfkWc-] foundSubmit result: H7LAB9odYIB3qW2UdJ26EFTfkWc- has been confirmedTrack | CTDB Status 1 | (4/4) Accurately ripped 2 | (4/4) Accurately ripped 3 | (4/4) Accurately ripped 4 | (4/4) Accurately ripped 5 | (4/4) Accurately ripped 6 | (4/4) Accurately ripped 7 | (4/4) Accurately ripped 8 | (4/4) Accurately ripped 9 | (4/4) Accurately ripped
==== Log checksum E996B052BF55CA1641F93138BB002AEF07338BC6EF7477B0ADD64291CB6298B1 ====

.cue

REM DATE 2018REM DISCID 710AFB09REM COMMENT "ExactAudioCopy v1.1"PERFORMER "Phideaux"TITLE "Infernal"FILE "01 - The Order of Protection (One).wav" WAVE  TRACK 01 AUDIO    TITLE "The Order of Protection (One)"    PERFORMER "Phideaux"    INDEX 01 00:00:00FILE "02 - Metro Deathfire.wav" WAVE  TRACK 02 AUDIO    TITLE "Metro Deathfire"    PERFORMER "Phideaux"    INDEX 01 00:00:00FILE "03 - Transit.wav" WAVE  TRACK 03 AUDIO    TITLE "Transit"    PERFORMER "Phideaux"    INDEX 01 00:00:00FILE "04 - In Dissonance We Play.wav" WAVE  TRACK 04 AUDIO    TITLE "In Dissonance We Play"    PERFORMER "Phideaux"    INDEX 01 00:00:00FILE "05 - The Sleepers Wake.wav" WAVE  TRACK 05 AUDIO    TITLE "The Sleepers Wake"    PERFORMER "Phideaux"    INDEX 01 00:00:00FILE "06 - The Order of Protection (Two).wav" WAVE  TRACK 06 AUDIO    TITLE "The Order of Protection (Two)"    PERFORMER "Phideaux"    INDEX 01 00:00:00  TRACK 07 AUDIO    TITLE "From Hydrogen to Love"    PERFORMER "Phideaux"    INDEX 00 04:33:14FILE "07 - From Hydrogen to Love.wav" WAVE    INDEX 01 00:00:00FILE "08 - Eternal.wav" WAVE  TRACK 08 AUDIO    TITLE "Eternal"    PERFORMER "Phideaux"    INDEX 01 00:00:00FILE "09 - Endgame - An End.wav" WAVE  TRACK 09 AUDIO    TITLE "Endgame - An End"    PERFORMER "Phideaux"    INDEX 01 00:00:00

CueTools

[CUETools log; Date: 2018.09.02. 1:24:49; Version: 2.1.6][CTDB TOCID: H7LAB9odYIB3qW2UdJ26EFTfkWc-] found.Track | CTDB Status  1   | (5/5) Accurately ripped  2   | (5/5) Accurately ripped  3   | (5/5) Accurately ripped  4   | (5/5) Accurately ripped  5   | (5/5) Accurately ripped  6   | (5/5) Accurately ripped  7   | (5/5) Accurately ripped  8   | (5/5) Accurately ripped  9   | (5/5) Accurately ripped[AccurateRip ID: 000e5751-006cfdbe-710afb09] disk not present in database.
Track Peak [ CRC32 ] [W/O NULL] [ LOG ] -- 100,0 [61260DA7] [8E694569] 01 99,2 [8975EA3E] [E0CD6957] CRC32 02 100,0 [B0277B95] [52D94450] CRC32 03 96,6 [2749679C] [09852BD3] CRC32 04 100,0 [DA9F0339] [C862A70D] CRC32 05 100,0 [C3629BFC] [BB6DE3B9] CRC32 06 100,0 [41B49B4C] [F6DCFF33] CRC32 07 100,0 [DEDF5570] [DBEFDC19] CRC32 08 100,0 [C7E41D84] [E25BC7D4] CRC32 09 99,2 [41EE4D5A] [E343C16B] CRC32
источник: Reorax

If you like the topic, please click share to help develop our site.

To download the file disable ad blocking, and reload the page.

disable adblock How to disable ad blocking?

Download by magnet link 567 MB Download Torrent

Login using:

Similar topics



   
Current time is: 22-Apr 09:25 :: All times are UTC + 3