Информация о фильме
Название: Фактотум
Оригинальное название: Factotum
Год выпуска: 2005
Жанр: Драма, мелодрама, комедия
Режиссер: Бент Хамер
В ролях: Мэтт Диллон, Лили Тейлор, Дидье Фламан, Фишер Стивенс, Мариса Томей, Эдриэнн Шелли, Карен Янг, Томас Лайонс, Дин Брюингтон, Джеймс Кэда, Джеймс Майкл Детмар, Курт Швейкхард, Джеймс Ной, Майкл Иган, Терри Хемплман, Эмили Хиннек, Уэйн Мортон, Тони Папенфусс, Лана Шваб, Брюс Боне, Крис Карлсон, Мишель Хатчинсон, Дэбби ДеЛиси, Рэй Бирк
О фильме: Генри Чинаски — азартный завсегдатай скачек и страстный любовник Джейн и Лауры, охочих до выпивки также как и он сам. Он живет для того, чтобы разглядывать жизнь в мельчайших деталях и описывать ее в прозе и стихах.Он работает на фабриках и складах, чтобы жить так, как ему нравится, т. е. пить, играть на скачках и общаться с женщинами, такими же неприкаянными, как и он сам, а главное — писать рассказы, которые никто не хочет печатать. Это история человека, живущего на краю, история писателя-маргинала, который готов рисковать чем угодно, чтобы доказать, что его жизнь и его поэзия — это одно и то же.

Выпущено: Норвегия, США, Германия, Франция, Италия, Canal+, Factotum, Network Movie
Продолжительность: 01:33:13
Перевод: Профессиональный многоголосый, авторский одноголосый
Файл
Качество: WEB-DLRip 720p
Видео: MPEG-4 AVC, 3339 Кбит/сек, 1280x690, 23.976 кадра/сек
Аудио 1: AC3, 2 ch, 192 Кбит/сек | Русский, профессиональный (многоголосый закадровый) Первый канал
Аудио 2: AC3, 6 ch, 384 Кбит/сек | Русский, профессиональный (многоголосый закадровый) R5
Аудио 3: AC3, 2 ch, 192 Кбит/сек | Русский, авторский (одноголосый закадровый) Константин Поздняков
Аудио 4: EAC3, 2 ch, 224 Кбит/сек | Английский, оригинал
Субтитры: Русские, английские
Релиз от:

Скриншоты


MediaInfo

x264 [info]: frame I:710 Avg QP:14.44 size: 145282
x264 [info]: frame P:26280 Avg QP:17.46 size: 49994
x264 [info]: frame B:107118 Avg QP:19.38 size: 8664
=====================================
Общее
Уникальный идентификатор : 209165826248813460564622137222322527250 (0x9D5BDF709335AC52AE7A42D846E51C12)
Полное имя : Factotum.2005.WEB-DLRip.720p.KORSAR.mkv
Формат : Matroska
Версия формата : Version 2
Размер файла : 2,82 Гбайт
Продолжительность : 1 ч. 33 м.
Общий поток : 4334 Кбит/сек
Дата кодирования : UTC 2017-06-06 23:24:28
Программа кодирования : mkvmerge v5.8.0 ('No Sleep / Pillow') built on Sep 2 2012 15:37:04
Библиотека кодирования : libebml v1.2.3 + libmatroska v1.3.0
Видео
Идентификатор : 1
Формат : AVC
Формат/Информация : Advanced Video Codec
Профиль формата : [email protected]
Параметр CABAC формата : Да
Параметр ReFrames формата : 9 кадров
Идентификатор кодека : V_MPEG4/ISO/AVC
Продолжительность : 1 ч. 33 м.
Битрейт : 3339 Кбит/сек
Ширина : 1280 пикселей
Высота : 690 пикселей
Соотношение сторон : 1,85:1
Режим частоты кадров : Постоянный
Частота кадров : 23,976 (24000/1001) кадра/сек
Цветовое пространство : YUV
Субдискретизация насыщенности : 4:2:0
Битовая глубина : 8 бит
Тип развёртки : Прогрессивная
Бит/(Пиксели*Кадры) : 0.158
Размер потока : 2,12 Гбайт (75%)
Заголовок : RIP | MZMA
Библиотека кодирования : x264 core 148 r2744kMod b97ae06
Настройки программы : cabac=1 / ref=9 / deblock=1:-3:-3 / analyse=0x3:0x113 / me=umh / subme=11 / psy=1 / fade_compensate=0.00 / psy_rd=1.00:0.00 / mixed_ref=1 / me_range=48 / chroma_me=1 / trellis=2 / 8x8dct=1 / cqm=0 / deadzone=21,11 / fast_pskip=0 / chroma_qp_offset=-2 / threads=6 / lookahead_threads=1 / sliced_threads=0 / nr=0 / decimate=0 / interlaced=0 / bluray_compat=0 / constrained_intra=0 / bframes=16 / b_pyramid=2 / b_adapt=2 / b_bias=0 / direct=3 / weightb=1 / open_gop=0 / weightp=2 / keyint=250 / keyint_min=23 / scenecut=40 / intra_refresh=0 / rc_lookahead=60 / rc=2pass / mbtree=1 / bitrate=3339 / ratetol=1.0 / qcomp=0.60 / qpmin=0 / qpmax=69 / qpstep=4 / cplxblur=20.0 / qblur=0.5 / vbv_maxrate=50000 / vbv_bufsize=62500 / nal_hrd=none / filler=0 / ip_ratio=1.40 / aq=3:1.00
Язык : English
Default : Да
Forced : Нет
Цветовой диапазон : Limited
Основные цвета : BT.709
Характеристики трансфера : BT.709
Коэффициенты матрицы : BT.709
Аудио #1
Идентификатор : 2
Формат : AC-3
Формат/Информация : Audio Coding 3
Расширение режима : CM
Параметр Endianness формата : Big
Идентификатор кодека : A_AC3
Продолжительность : 1 ч. 33 м.
Вид битрейта : Постоянный
Битрейт : 192 Кбит/сек
Каналы : 2 канала
Расположение каналов : Front: L R
Частота : 48,0 КГц
Частота кадров : 31,250 кадров/сек (1536 spf)
Битовая глубина : 16 бит
Метод сжатия : С потерями
Размер потока : 128 Мбайт (4%)
Заголовок : MVO | Первый канал
Язык : Russian
Default : Да
Forced : Нет
Аудио #2
Идентификатор : 3
Формат : AC-3
Формат/Информация : Audio Coding 3
Расширение режима : CM
Параметр Endianness формата : Big
Идентификатор кодека : A_AC3
Продолжительность : 1 ч. 33 м.
Вид битрейта : Постоянный
Битрейт : 384 Кбит/сек
Каналы : 6 каналов
Расположение каналов : Front: L C R, Side: L R, LFE
Частота : 48,0 КГц
Частота кадров : 31,250 кадров/сек (1536 spf)
Битовая глубина : 16 бит
Метод сжатия : С потерями
Размер потока : 256 Мбайт (9%)
Заголовок : MVO | R5
Язык : Russian
Default : Нет
Forced : Нет
Аудио #3
Идентификатор : 4
Формат : AC-3
Формат/Информация : Audio Coding 3
Расширение режима : CM
Параметр Endianness формата : Big
Идентификатор кодека : A_AC3
Продолжительность : 1 ч. 33 м.
Вид битрейта : Постоянный
Битрейт : 192 Кбит/сек
Каналы : 2 канала
Расположение каналов : Front: L R
Частота : 48,0 КГц
Частота кадров : 31,250 кадров/сек (1536 spf)
Битовая глубина : 16 бит
Метод сжатия : С потерями
Размер потока : 128 Мбайт (4%)
Заголовок : AVO | К. Поздняков
Язык : Russian
Default : Нет
Forced : Нет
Аудио #4
Идентификатор : 5
Формат : E-AC-3
Формат/Информация : Enhanced Audio Coding 3
Параметр Endianness формата : Big
Идентификатор кодека : A_EAC3
Продолжительность : 1 ч. 33 м.
Вид битрейта : Постоянный
Битрейт : 224 Кбит/сек
Каналы : 2 канала
Расположение каналов : Front: L R
Частота : 48,0 КГц
Частота кадров : 187,500 кадров/сек (256 spf)
Метод сжатия : С потерями
Задержка видео : 20 мс.
Размер потока : 149 Мбайт (5%)
Заголовок : Оригинал
Язык : English
Default : Нет
Forced : Нет
Текст #1
Идентификатор : 6
Формат : UTF-8
Идентификатор кодека : S_TEXT/UTF8
Идентификатор кодека/Информация : UTF-8 Plain Text
Заголовок : shoorah
Язык : Russian
Default : Нет
Forced : Нет
Текст #2
Идентификатор : 7
Формат : UTF-8
Идентификатор кодека : S_TEXT/UTF8
Идентификатор кодека/Информация : UTF-8 Plain Text
Заголовок : R5
Язык : Russian
Default : Нет
Forced : Нет
Текст #3
Идентификатор : 8
Формат : UTF-8
Идентификатор кодека : S_TEXT/UTF8
Идентификатор кодека/Информация : UTF-8 Plain Text
Заголовок : К. Поздняков
Язык : Russian
Default : Нет
Forced : Нет
Текст #4
Идентификатор : 9
Формат : UTF-8
Идентификатор кодека : S_TEXT/UTF8
Идентификатор кодека/Информация : UTF-8 Plain Text
Язык : English
Default : Нет
Forced : Нет

If you like the topic, please click share to help develop our site.

To download the file disable ad blocking, and reload the page.

disable adblock How to disable ad blocking?

Download by magnet link 2.82 GB Download Torrent

Login using:

Similar topics

Чувства / Les sentiments (2003) HDRip 720p | Sub
 1.73 GB   0 | 2   22-Sep-16 18:36   38
Шалопай / Mischief (1985) WEBRip 1080p | P2
 8.7 GB   0 | 0   27-May-17 19:00   20
Доводы рассудка / Persuasion (2007) BDRip 720p | P
 7.18 GB   2 | 1   27-Nov-17 02:30   11
Только ты / Only You (1992) WEBRip 1080p | P
 9.38 GB   0 | 0   21-Jan-17 15:39   9
Муж парикмахерши / Le mari de la coiffeuse (1990) BDRip 1080p
 6.04 GB   0 | 0   02-Jun-16 18:34   8


   
Current time is: 18-Jul 12:13 :: All times are UTC + 3