Paul Rodgers ‎– Electric- -Жанр: Rock
Страна-производитель диска: USA
Год издания диска: 2000
Лейбл: CMC International Records
Номер по каталогу: 06076 86294-2
Страна исполнителя: UK
Аудио кодек: FLAC (*.flac)
Тип рипа: image+.cue
Битрейт аудио: lossless
Продолжительность: 41:43
Источник: dafnaplus
Наличие сканов в содержимом раздачи: да, dpi 600
Трэклист:
01. Deep Blue 2:34
02. Walking Tall 3:34
03. Find A Way 5:37
04. China Blue 3:02
05. Love Rains 3:18
06. Over You 6:29
07. Drifters 4:20
08. Freedom 3:53
09. Jasmine Flower 4:00
10. Conquistadora 4:56
-

Лог создания рипа

Exact Audio Copy V1.3 from 2. September 2016
EAC extraction logfile from 29. May 2018, 9:59
Paul Rodgers / Electric (06076 86294-2)
Used drive : hp DVDRAM GT80N Adapter: 1 ID: 0
Read mode : SecureUtilize accurate stream : YesDefeat audio cache : YesMake use of C2 pointers : No
Read offset correction : 102Overread into Lead-In and Lead-Out : NoFill up missing offset samples with silence : YesDelete leading and trailing silent blocks : NoNull samples used in CRC calculations : YesUsed interface : Native Win32 interface for Win NT & 2000
Used output format : User Defined EncoderSelected bitrate : 1024 kBit/sQuality : HighAdd ID3 tag : NoCommand line compressor : C:\Program Files (x86)\Exact Audio Copy\Flac\flac.exeAdditional command line options : -V -8 -T "Date=%year%" -T "Genre=%genre%" %source%
TOC of the extracted CD
Track | Start | Length | Start sector | End sector --------------------------------------------------------- 1 | 0:00.00 | 2:33.56 | 0 | 11530 2 | 2:33.56 | 3:34.32 | 11531 | 27612 3 | 6:08.13 | 5:37.36 | 27613 | 52923 4 | 11:45.49 | 3:01.47 | 52924 | 66545 5 | 14:47.21 | 3:18.29 | 66546 | 81424 6 | 18:05.50 | 6:29.18 | 81425 | 110617 7 | 24:34.68 | 4:19.49 | 110618 | 130091 8 | 28:54.42 | 3:53.20 | 130092 | 147586 9 | 32:47.62 | 3:59.46 | 147587 | 165557 10 | 36:47.33 | 4:55.69 | 165558 | 187751
Range status and errors
Selected range
Filename H:\dafnaplus\Paul Rodgers - Electric\Paul Rodgers - Electric (06076 86294-2).wav
Peak level 96.6 % Extraction speed 2.0 X Range quality 100.0 % Test CRC 681B930C Copy CRC 681B930C Copy OK
No errors occurred
AccurateRip summary
Track 1 accurately ripped (confidence 9) [895EF224] (AR v2)Track 2 accurately ripped (confidence 8) [62F0866B] (AR v2)Track 3 accurately ripped (confidence 8) [BAF2FF1B] (AR v2)Track 4 accurately ripped (confidence 8) [58A31876] (AR v2)Track 5 accurately ripped (confidence 8) [0FE67236] (AR v2)Track 6 accurately ripped (confidence 8) [2C6CC10A] (AR v2)Track 7 accurately ripped (confidence 8) [5C551AAB] (AR v2)Track 8 accurately ripped (confidence 8) [3AABBFE9] (AR v2)Track 9 accurately ripped (confidence 8) [DE1776FB] (AR v2)Track 10 accurately ripped (confidence 8) [AF4BC452] (AR v2)
All tracks accurately ripped
End of status report
---- CUETools DB Plugin V2.1.6
[CTDB TOCID: zDMCR9QKlCJXzmGQaCuSxTQVlM8-] foundSubmit result: zDMCR9QKlCJXzmGQaCuSxTQVlM8- has been confirmedTrack | CTDB Status 1 | (13/13) Accurately ripped 2 | (13/13) Accurately ripped 3 | (13/13) Accurately ripped 4 | (13/13) Accurately ripped 5 | (13/13) Accurately ripped 6 | (13/13) Accurately ripped 7 | (13/13) Accurately ripped 8 | (13/13) Accurately ripped 9 | (13/13) Accurately ripped 10 | (13/13) Accurately ripped
==== Log checksum 61CFC505893488F97A34F9CC5EFEE1A4F1107EF5DE328DA189093D9B9A4F689B ====

DR Log

foobar2000 1.3.14 / Dynamic Range Meter 1.1.1log date: 2018-05-29 10:05:04
--------------------------------------------------------------------------------Analyzed: Paul Rodgers / Electric (06076 86294-2)--------------------------------------------------------------------------------
DR Peak RMS Duration Track--------------------------------------------------------------------------------DR8 -0.30 dB -9.38 dB 2:34 01-Deep BlueDR7 -0.30 dB -9.11 dB 3:34 02-Walking TallDR8 -0.30 dB -10.43 dB 5:37 03-Find A WayDR10 -0.30 dB -11.41 dB 3:02 04-China BlueDR6 -0.30 dB -8.10 dB 3:18 05-Love RainsDR8 -0.30 dB -10.32 dB 6:29 06-Over YouDR9 -0.30 dB -9.85 dB 4:20 07-DriftersDR8 -0.30 dB -9.34 dB 3:53 08-FreedomDR9 -0.30 dB -10.35 dB 4:00 09-Jasmine FlowerDR8 -0.30 dB -9.70 dB 4:56 10-Conquistadora--------------------------------------------------------------------------------
Number of tracks: 10Official DR value: DR8
Samplerate: 44100 HzChannels: 2Bits per sample: 16Bitrate: 919 kbpsCodec: FLAC================================================================================

Back, Disc, Matrix

-

If you like the topic, please click share to help develop our site.

To download the file disable ad blocking, and reload the page.

disable adblock How to disable ad blocking?

Download by magnet link 330 MB Download Torrent

Login using:

Similar topics



   
Current time is: 26-Apr 15:14 :: All times are UTC + 3