The Swan Chorus / The Swan Chorus
Жанр: Symphonic Prog/Neo-Prog
Носитель: WEB
Год издания: 2018
Страна исполнителя (группы): UK
Аудиокодек: FLAC (*.flac)
Тип рипа: tracks
Битрейт аудио: lossless
Продолжительность: 01:08:46
Источник (релизер): Bandcamp
Наличие сканов в содержимом раздачи: нет

01. The Hilary Step [00:06:00]
02. Don't Talk About [00:05:52]
03. My Dark Passenger [00:04:37]
04. The Check [00:06:22]
05. Stand Together [00:06:02]
06. Pure Fate Star Shadow [00:05:02]
07. Performance Anxiety [00:05:19]
08. The House That Jack Built [00:08:02]
09. Poster Boy [00:04:17]
10. Walk The Same Road [00:17:10]
Released August 15, 2018--

Состав

John Wilkinson: Lead Vocals
David Knowles: Synthesizers and Organ
Les Norton: Acoustic and Electric Guitars
Dave Jones: Basses
Peter Dover: Drums and Percussion
Eddie Devlin: Additional Guitars and Loads of Backing Vocals

Лог проверки качества

-----------------------
DON'T MODIFY THIS FILE
-----------------------
PERFORMER: auCDtect Task Manager, ver. 1.6.0 RC1 build 1.6.0.1Copyright (c) 2008-2010 y-soft. All rights reservedhttp://y-soft.org
ANALYZER: auCDtect: CD records authenticity detector, version 0.8.2Copyright (c) 2004 Oleg Berngardt. All rights reserved.Copyright (c) 2004 Alexander Djourik. All rights reserved.
FILE: 10. Walk The Same Road.flac Size: 127075111 Hash: BBDFEB026CC7FBCA2F259B9AB28018A2 Accuracy: -m0 Conclusion: CDDA 100% Signature: 3D7A652CADDCC6BB3498D6A600471873EB432889FILE: 09. Poster Boy.flac Size: 32221445 Hash: BE8874AE3EC451D8B39A4432D30CE38D Accuracy: -m0 Conclusion: CDDA 100% Signature: F7F0E8EF0775FBD57FCDDFC6CE6AC370BF019797FILE: 08. The House That Jack Built.flac Size: 60970892 Hash: 403ABA36A437368B3C55820E74546C04 Accuracy: -m0 Conclusion: CDDA 100% Signature: CB2DD8CC28D0B209376477FA9AA76A2ED2F52C22FILE: 07. Performance Anxiety.flac Size: 41482956 Hash: 7FF4727B4986FE78BA3F982E9394C173 Accuracy: -m0 Conclusion: CDDA 100% Signature: 304216CCE14FA8AC799C1CC1F9720DC9294BE781FILE: 06. Pure Fate Star Shadow.flac Size: 41324338 Hash: 402EB47AF25DE35533EFF14AA2FCBB50 Accuracy: -m0 Conclusion: CDDA 100% Signature: 2F44AEF7E42C2971D5DCB343BA11ACE0081B4544FILE: 05. Stand Together.flac Size: 46768178 Hash: 250DC6CEA96FD1E536F66916ADF79124 Accuracy: -m0 Conclusion: CDDA 100% Signature: 239A2C320B91E55CDBC8C5A186362F14C446373DFILE: 04. The Check.flac Size: 47102290 Hash: 95904682B021F990160BA1F08A5D4FAD Accuracy: -m0 Conclusion: CDDA 100% Signature: 788057A91474E2664F26E47ED384773C65579D91FILE: 03. My Dark Passenger.flac Size: 35182124 Hash: 703DFC1985DA0D1F7B8CB316A3DD56BC Accuracy: -m0 Conclusion: CDDA 100% Signature: 7B562EDCF906F1369FDA3D245D711478A282D147FILE: 02. Don't Talk About.flac Size: 42945744 Hash: 4DBEE2B08BFDDF4D33F827FCF3148F8F Accuracy: -m0 Conclusion: CDDA 100% Signature: DC71590FC2FFE3F2A4E17E325DCF46EB2F2322D1FILE: 01. The Hilary Step.flac Size: 45498964 Hash: 23B57694FE20911C794C8D9247DD497C Accuracy: -m0 Conclusion: CDDA 100% Signature: 63357337190EC9765120A34FF5F35F4DFA83C5AE

DRM log

foobar2000 1.3.12 / Dynamic Range Meter 1.1.1log date: 2018-09-02 20:25:54
--------------------------------------------------------------------------------Analyzed: The Swan Chorus / The Swan Chorus--------------------------------------------------------------------------------
DR Peak RMS Duration Track--------------------------------------------------------------------------------DR6 -0.31 dB -7.21 dB 6:00 01-The Hilary StepDR7 -0.29 dB -8.58 dB 5:52 02-Don't Talk AboutDR5 -0.31 dB -7.02 dB 4:37 03-My Dark PassengerDR7 -0.29 dB -8.53 dB 6:22 04-The CheckDR6 -0.31 dB -7.97 dB 6:03 05-Stand TogetherDR4 -0.30 dB -5.28 dB 5:03 06-Pure Fate Star ShadowDR5 -0.31 dB -7.16 dB 5:19 07-Performance AnxietyDR6 -0.30 dB -9.01 dB 8:03 08-The House That Jack BuiltDR7 -0.31 dB -9.16 dB 4:18 09-Poster BoyDR6 -0.31 dB -9.30 dB 17:10 10-Walk The Same Road--------------------------------------------------------------------------------
Number of tracks: 10Official DR value: DR6
Samplerate: 44100 HzChannels: 2Bits per sample: 16Bitrate: 986 kbpsCodec: FLAC================================================================================
--

If you like the topic, please click share to help develop our site.

To download the file disable ad blocking, and reload the page.

disable adblock How to disable ad blocking?

Download by magnet link 498 MB Download Torrent

Login using:

Similar topics



   
Current time is: 21-Feb 20:36 :: All times are UTC + 3