Laura Nyro - An Evening with Laura Nyro: Live in Japan 1994
Жанр: Folk, Singer/Songwriter, Soft Rock
Носитель: CD
Страна-производитель диска (релиза): Япония
Год издания: 2003
Издатель (лейбл): Universal
Номер по каталогу: UICY-1139
Аудиокодек: FLAC (*.flac)
Тип рипа: tracks+.cue
Битрейт аудио: lossless
Продолжительность: 64:54
Источник (релизер): columnatedruins
Наличие сканов в содержимом раздачи: нет
Треклист:
01. Dedicated to the One I Love (3:29)
02. Ooh Baby Baby (2:09)
03. A Woman of the World (4:18)
04. Louise's Church (3:20)
05. Life a Flame (The Animal Rights Song) (3:31)
06. Walk the Dog and Light the Light (Song of the Road) (2:58)
07. The Japanese Restaurant Song (3:57)
08. And When I Die (2:42)
09. To a Child (3:44)
10. The Descent of Luna Rose (2:55)
11. Wild World (2:34)
12. Save the Country (2:54)
13. Wedding Bell Blues (2:15)
14. Trees of the Ages/Emmie (4:47)
15. Walk On By (2:20)
16. Let It Be Me (3:19)
17. Oh Yeah Maybe Baby (The Heebie Jeebies) (2:53)
18. Wind (2:04)
19. Broken Rainbow (3:58)
20. My Innocence/Sophia (2:08)
21. Art of Love (2:39)

Лог создания рипа

Exact Audio Copy V1.3 from 2. September 2016
EAC extraction logfile from 28. May 2018, 14:55
Laura Nyro / An Evening With Laura Nyro: Live In Japan 1994
Used drive : ASUS BW-12D1S-U Adapter: 1 ID: 0
Read mode : SecureUtilize accurate stream : YesDefeat audio cache : YesMake use of C2 pointers : No
Read offset correction : 667Overread into Lead-In and Lead-Out : NoFill up missing offset samples with silence : YesDelete leading and trailing silent blocks : NoNull samples used in CRC calculations : YesUsed interface : Native Win32 interface for Win NT & 2000Gap handling : Appended to previous track
Used output format : User Defined EncoderSelected bitrate : 1024 kBit/sQuality : HighAdd ID3 tag : NoCommand line compressor : C:\Program Files (x86)\Exact Audio Copy\FLAC\FLAC.EXEAdditional command line options : -6 -V -T "ARTIST=%artist%" -T "TITLE=%title%" -T "ALBUM=%albumtitle%" -T "DATE=%year%" -T "TRACKNUMBER=%tracknr%" -T "GENRE=%genre%" -T "COMMENT=%comment%" -T "BAND=%albuminterpret%" -T "ALBUMARTIST=%albuminterpret%" -T "COMPOSER=%composer%" %haslyrics%--tag-from-file=LYRICS="%lyricsfile%"%haslyrics% -T "DISCNUMBER=%cdnumber%" -T "TOTALDISCS=%totalcds%" -T "TOTALTRACKS=%numtracks%" %hascover%--picture="%coverfile%"%hascover% %source% -o %dest%
TOC of the extracted CD
Track | Start | Length | Start sector | End sector --------------------------------------------------------- 1 | 0:00.00 | 3:29.35 | 0 | 15709 2 | 3:29.35 | 2:09.12 | 15710 | 25396 3 | 5:38.47 | 4:17.60 | 25397 | 44731 4 | 9:56.32 | 3:19.50 | 44732 | 59706 5 | 13:16.07 | 3:31.18 | 59707 | 75549 6 | 16:47.25 | 2:58.22 | 75550 | 88921 7 | 19:45.47 | 3:57.35 | 88922 | 106731 8 | 23:43.07 | 2:42.20 | 106732 | 118901 9 | 26:25.27 | 3:44.25 | 118902 | 135726 10 | 30:09.52 | 2:55.15 | 135727 | 148866 11 | 33:04.67 | 2:34.18 | 148867 | 160434 12 | 35:39.10 | 2:53.72 | 160435 | 173481 13 | 38:33.07 | 2:14.40 | 173482 | 183571 14 | 40:47.47 | 4:46.73 | 183572 | 205094 15 | 45:34.45 | 2:20.02 | 205095 | 215596 16 | 47:54.47 | 3:18.38 | 215597 | 230484 17 | 51:13.10 | 2:53.30 | 230485 | 243489 18 | 54:06.40 | 2:04.17 | 243490 | 252806 19 | 56:10.57 | 3:58.18 | 252807 | 270674 20 | 60:09.00 | 2:07.45 | 270675 | 280244 21 | 62:16.45 | 2:38.57 | 280245 | 292151
Track 1
Filename C:\Users\robch\Music\Laura Nyro - An Evening With Laura Nyro - Live in Japan 1994 (2003 - Full Version) Japan\01 Dedicated To The One I Love.wav
Pre-gap length 0:00:02.00
Peak level 97.5 % Extraction speed 3.9 X Track quality 99.9 % Test CRC 8B13F5F5 Copy CRC 8B13F5F5 Track not present in AccurateRip database Copy OK
Track 2
Filename C:\Users\robch\Music\Laura Nyro - An Evening With Laura Nyro - Live in Japan 1994 (2003 - Full Version) Japan\02 Ooh Baby Baby.wav
Peak level 97.5 % Extraction speed 3.6 X Track quality 99.9 % Test CRC C881450C Copy CRC C881450C Track not present in AccurateRip database Copy OK
Track 3
Filename C:\Users\robch\Music\Laura Nyro - An Evening With Laura Nyro - Live in Japan 1994 (2003 - Full Version) Japan\03 A Woman Of The World.wav
Peak level 97.5 % Extraction speed 5.2 X Track quality 100.0 % Test CRC CB8DD916 Copy CRC CB8DD916 Track not present in AccurateRip database Copy OK
Track 4
Filename C:\Users\robch\Music\Laura Nyro - An Evening With Laura Nyro - Live in Japan 1994 (2003 - Full Version) Japan\04 Louise's Church.wav
Peak level 97.5 % Extraction speed 5.3 X Track quality 100.0 % Test CRC 26250BEA Copy CRC 26250BEA Track not present in AccurateRip database Copy OK
Track 5
Filename C:\Users\robch\Music\Laura Nyro - An Evening With Laura Nyro - Live in Japan 1994 (2003 - Full Version) Japan\05 Life A Flame (The Animal Rights Song).wav
Peak level 95.3 % Extraction speed 5.6 X Track quality 100.0 % Test CRC C59A8448 Copy CRC C59A8448 Track not present in AccurateRip database Copy OK
Track 6
Filename C:\Users\robch\Music\Laura Nyro - An Evening With Laura Nyro - Live in Japan 1994 (2003 - Full Version) Japan\06 Walk The Dog & Light The Light (Song Of The Road).wav
Peak level 96.4 % Extraction speed 4.9 X Track quality 99.9 % Test CRC E706C275 Copy CRC E706C275 Track not present in AccurateRip database Copy OK
Track 7
Filename C:\Users\robch\Music\Laura Nyro - An Evening With Laura Nyro - Live in Japan 1994 (2003 - Full Version) Japan\07 The Japanese Restaurant Song.wav
Peak level 93.2 % Extraction speed 6.3 X Track quality 100.0 % Test CRC 6554472E Copy CRC 6554472E Track not present in AccurateRip database Copy OK
Track 8
Filename C:\Users\robch\Music\Laura Nyro - An Evening With Laura Nyro - Live in Japan 1994 (2003 - Full Version) Japan\08 And When I Die.wav
Peak level 94.4 % Extraction speed 6.0 X Track quality 100.0 % Test CRC 50001A38 Copy CRC 50001A38 Track not present in AccurateRip database Copy OK
Track 9
Filename C:\Users\robch\Music\Laura Nyro - An Evening With Laura Nyro - Live in Japan 1994 (2003 - Full Version) Japan\09 To A Child.wav
Peak level 95.0 % Extraction speed 6.6 X Track quality 100.0 % Test CRC 8E916563 Copy CRC 8E916563 Track not present in AccurateRip database Copy OK
Track 10
Filename C:\Users\robch\Music\Laura Nyro - An Evening With Laura Nyro - Live in Japan 1994 (2003 - Full Version) Japan\10 The Descent Of Luna Rose.wav
Peak level 89.4 % Extraction speed 6.4 X Track quality 100.0 % Test CRC 0DE17286 Copy CRC 0DE17286 Track not present in AccurateRip database Copy OK
Track 11
Filename C:\Users\robch\Music\Laura Nyro - An Evening With Laura Nyro - Live in Japan 1994 (2003 - Full Version) Japan\11 Wild World.wav
Peak level 97.5 % Extraction speed 6.5 X Track quality 100.0 % Test CRC A4189BB8 Copy CRC A4189BB8 Track not present in AccurateRip database Copy OK
Track 12
Filename C:\Users\robch\Music\Laura Nyro - An Evening With Laura Nyro - Live in Japan 1994 (2003 - Full Version) Japan\12 Save The Country.wav
Peak level 94.0 % Extraction speed 5.8 X Track quality 99.9 % Test CRC 4D3A1CA7 Copy CRC 4D3A1CA7 Track not present in AccurateRip database Copy OK
Track 13
Filename C:\Users\robch\Music\Laura Nyro - An Evening With Laura Nyro - Live in Japan 1994 (2003 - Full Version) Japan\13 Wedding Bell Blues.wav
Peak level 97.5 % Extraction speed 6.5 X Track quality 100.0 % Test CRC 73E77AE9 Copy CRC 73E77AE9 Track not present in AccurateRip database Copy OK
Track 14
Filename C:\Users\robch\Music\Laura Nyro - An Evening With Laura Nyro - Live in Japan 1994 (2003 - Full Version) Japan\14 Trees Of The Ages , Emmie.wav
Peak level 97.5 % Extraction speed 7.5 X Track quality 100.0 % Test CRC 5322EC22 Copy CRC 5322EC22 Track not present in AccurateRip database Copy OK
Track 15
Filename C:\Users\robch\Music\Laura Nyro - An Evening With Laura Nyro - Live in Japan 1994 (2003 - Full Version) Japan\15 Walk On By.wav
Peak level 97.5 % Extraction speed 6.9 X Track quality 100.0 % Test CRC D7856864 Copy CRC D7856864 Track not present in AccurateRip database Copy OK
Track 16
Filename C:\Users\robch\Music\Laura Nyro - An Evening With Laura Nyro - Live in Japan 1994 (2003 - Full Version) Japan\16 Let It Be Me.wav
Peak level 95.4 % Extraction speed 6.5 X Track quality 99.9 % Test CRC 426E8FEE Copy CRC 426E8FEE Track not present in AccurateRip database Copy OK
Track 17
Filename C:\Users\robch\Music\Laura Nyro - An Evening With Laura Nyro - Live in Japan 1994 (2003 - Full Version) Japan\17 Oh Yeah Maybe Baby (The Heebie Jeebies).wav
Pre-gap length 0:00:09.66
Peak level 97.7 % Extraction speed 7.3 X Track quality 100.0 % Test CRC 5C581EFB Copy CRC 5C581EFB Track not present in AccurateRip database Copy OK
Track 18
Filename C:\Users\robch\Music\Laura Nyro - An Evening With Laura Nyro - Live in Japan 1994 (2003 - Full Version) Japan\18 The Wind.wav
Peak level 95.8 % Extraction speed 7.0 X Track quality 100.0 % Test CRC F1FA61FA Copy CRC F1FA61FA Track not present in AccurateRip database Copy OK
Track 19
Filename C:\Users\robch\Music\Laura Nyro - An Evening With Laura Nyro - Live in Japan 1994 (2003 - Full Version) Japan\19 Broken Rainbow.wav
Peak level 92.2 % Extraction speed 8.0 X Track quality 100.0 % Test CRC 3FC38DEE Copy CRC 3FC38DEE Track not present in AccurateRip database Copy OK
Track 20
Filename C:\Users\robch\Music\Laura Nyro - An Evening With Laura Nyro - Live in Japan 1994 (2003 - Full Version) Japan\20 My Innocence , Sophia.wav
Peak level 97.5 % Extraction speed 7.2 X Track quality 100.0 % Test CRC C0C3CFDB Copy CRC C0C3CFDB Track not present in AccurateRip database Copy OK
Track 21
Filename C:\Users\robch\Music\Laura Nyro - An Evening With Laura Nyro - Live in Japan 1994 (2003 - Full Version) Japan\21 Art Of Love.wav
Peak level 97.5 % Extraction speed 7.6 X Track quality 100.0 % Test CRC E93C3AF9 Copy CRC E93C3AF9 Track not present in AccurateRip database Copy OK
None of the tracks are present in the AccurateRip database
No errors occurred
End of status report
---- CUETools DB Plugin V2.1.6
[CTDB TOCID: xop.JTb3at7fokiTxe2Q2h4DoHg-] disk not present in databaseSubmit result: xop.JTb3at7fokiTxe2Q2h4DoHg- has been uploaded
==== Log checksum B2DF1FA682770EDEC69DBB527C56F76CBB7843284EA2B320CE5F949B2C9CA92D ====

Содержание индексной карты (.CUE)

REM GENRE FolkREM DATE 2003REM DISCID 390F3715REM COMMENT "ExactAudioCopy v1.3"CATALOG 4988005320223PERFORMER "Laura Nyro"TITLE "An Evening with Laura Nyro: Live in Japan 1994"FILE "01 - Dedicated to the One I Love.wav" WAVE  TRACK 01 AUDIO    TITLE "Dedicated to the One I Love"    PERFORMER "Laura Nyro"    INDEX 01 00:00:00FILE "02 - Ooh Baby Baby.wav" WAVE  TRACK 02 AUDIO    TITLE "Ooh Baby Baby"    PERFORMER "Laura Nyro"    INDEX 01 00:00:00FILE "03 - A Woman of the World.wav" WAVE  TRACK 03 AUDIO    TITLE "A Woman of the World"    PERFORMER "Laura Nyro"    INDEX 01 00:00:00FILE "04 - Louise's Church.wav" WAVE  TRACK 04 AUDIO    TITLE "Louise's Church"    PERFORMER "Laura Nyro"    INDEX 01 00:00:00FILE "05 - Life a Flame (The Animal Rights Song).wav" WAVE  TRACK 05 AUDIO    TITLE "Life a Flame (The Animal Rights Song)"    PERFORMER "Laura Nyro"    INDEX 01 00:00:00FILE "06 - Walk the Dog and Light the Light (Song of the Road).wav" WAVE  TRACK 06 AUDIO    TITLE "Walk the Dog and Light the Light (Song of the Road)"    PERFORMER "Laura Nyro"    INDEX 01 00:00:00FILE "07 - The Japanese Restaurant Song.wav" WAVE  TRACK 07 AUDIO    TITLE "The Japanese Restaurant Song"    PERFORMER "Laura Nyro"    INDEX 01 00:00:00FILE "08 - And When I Die.wav" WAVE  TRACK 08 AUDIO    TITLE "And When I Die"    PERFORMER "Laura Nyro"    INDEX 01 00:00:00FILE "09 - To a Child.wav" WAVE  TRACK 09 AUDIO    TITLE "To a Child"    PERFORMER "Laura Nyro"    INDEX 01 00:00:00FILE "10 - The Descent of Luna Rose.wav" WAVE  TRACK 10 AUDIO    TITLE "The Descent of Luna Rose"    PERFORMER "Laura Nyro"    INDEX 01 00:00:00FILE "11 - Wild World.wav" WAVE  TRACK 11 AUDIO    TITLE "Wild World"    PERFORMER "Laura Nyro"    INDEX 01 00:00:00FILE "12 - Save the Country.wav" WAVE  TRACK 12 AUDIO    TITLE "Save the Country"    PERFORMER "Laura Nyro"    INDEX 01 00:00:00FILE "13 - Wedding Bell Blues.wav" WAVE  TRACK 13 AUDIO    TITLE "Wedding Bell Blues"    PERFORMER "Laura Nyro"    INDEX 01 00:00:00FILE "14 - Trees of the Ages,Emmie.wav" WAVE  TRACK 14 AUDIO    TITLE "Trees of the Ages/Emmie"    PERFORMER "Laura Nyro"    INDEX 01 00:00:00FILE "15 - Walk On By.wav" WAVE  TRACK 15 AUDIO    TITLE "Walk On By"    PERFORMER "Laura Nyro"    INDEX 01 00:00:00FILE "16 - Let It Be Me.wav" WAVE  TRACK 16 AUDIO    TITLE "Let It Be Me"    PERFORMER "Laura Nyro"    INDEX 01 00:00:00  TRACK 17 AUDIO    TITLE "Oh Yeah Maybe Baby (The Heebie Jeebies)"    PERFORMER "Laura Nyro"    INDEX 00 03:08:63FILE "17 - Oh Yeah Maybe Baby (The Heebie Jeebies).wav" WAVE    INDEX 01 00:00:00FILE "18 - Wind.wav" WAVE  TRACK 18 AUDIO    TITLE "Wind"    PERFORMER "Laura Nyro"    INDEX 01 00:00:00FILE "19 - Broken Rainbow.wav" WAVE  TRACK 19 AUDIO    TITLE "Broken Rainbow"    PERFORMER "Laura Nyro"    INDEX 01 00:00:00FILE "20 - My Innocence,Sophia.wav" WAVE  TRACK 20 AUDIO    TITLE "My Innocence/Sophia"    PERFORMER "Laura Nyro"    INDEX 01 00:00:00FILE "21 - Art of Love.wav" WAVE  TRACK 21 AUDIO    TITLE "Art of Love"    PERFORMER "Laura Nyro"    INDEX 01 00:00:00

Отчет CUETools

[CUETools log; Date: 02.09.2018 0:59:15; Version: 2.1.5][CTDB TOCID: xop.JTb3at7fokiTxe2Q2h4DoHg-] found.Track | CTDB Status  1   | (4/4) Accurately ripped  2   | (4/4) Accurately ripped  3   | (4/4) Accurately ripped  4   | (4/4) Accurately ripped  5   | (4/4) Accurately ripped  6   | (4/4) Accurately ripped  7   | (4/4) Accurately ripped  8   | (4/4) Accurately ripped  9   | (4/4) Accurately ripped 10   | (4/4) Accurately ripped 11   | (4/4) Accurately ripped 12   | (4/4) Accurately ripped 13   | (4/4) Accurately ripped 14   | (4/4) Accurately ripped 15   | (4/4) Accurately ripped 16   | (4/4) Accurately ripped 17   | (4/4) Accurately ripped 18   | (4/4) Accurately ripped 19   | (4/4) Accurately ripped 20   | (4/4) Accurately ripped 21   | (4/4) Accurately ripped[AccurateRip ID: 0032c919-03056a04-390f3715] disk not present in database.
Track Peak [ CRC32 ] [W/O NULL] [ LOG ] -- 97,7 [F5077256] [10025AB6] 01 97,5 [8B13F5F5] [E62B6349] CRC32 02 97,5 [C881450C] [709F4563] CRC32 03 97,5 [CB8DD916] [756A7D52] CRC32 04 97,5 [26250BEA] [3D60BA09] CRC32 05 95,3 [C59A8448] [FDF4B2A0] CRC32 06 96,4 [E706C275] [F2180B0F] CRC32 07 93,2 [6554472E] [B2EB1A39] CRC32 08 94,4 [50001A38] [29BB81D4] CRC32 09 95,0 [8E916563] [BB8D88F2] CRC32 10 89,4 [0DE17286] [5BA1D1A9] CRC32 11 97,5 [A4189BB8] [798B85AF] CRC32 12 94,0 [4D3A1CA7] [74E3A645] CRC32 13 97,5 [73E77AE9] [52E5AE15] CRC32 14 97,5 [5322EC22] [348CDD5E] CRC32 15 97,5 [D7856864] [BF590D83] CRC32 16 95,4 [426E8FEE] [C64F60BE] CRC32 17 97,7 [5C581EFB] [597683CF] CRC32 18 95,8 [F1FA61FA] [87650034] CRC32 19 92,2 [3FC38DEE] [7F6F0515] CRC32 20 97,5 [C0C3CFDB] [A06074FE] CRC32 21 97,5 [E93C3AF9] [C3DE10ED] CRC32

If you like the topic, please click share to help develop our site.

To download the file disable ad blocking, and reload the page.

disable adblock How to disable ad blocking?

Download by magnet link 345 MB Download Torrent

Login using:

Similar topics



   
Current time is: 18-Jul 11:43 :: All times are UTC + 3