Неизведанный ИндокитайWildest Indochina
-Год выпуска: 2014
Страны: США, Великобритания, Канада
Производство: Off The Fence, Blue Ant Media Productions Inc.
Жанр: Документальный, познавательный, природа
Режиссёр: Джеймс Хемминг (James Hemming)
Продолжительность: 5 x ~00:44:00-Перевод: Студийный (одноголосый закадровый) [Студия АРК ТВ: Александр Гаврилин (1,4), Денис Некрасов (2,3)]
Русские субтитры: нет-Описание: Природа Индокитая хранит в себе удивительные сокровища животного мира. Здесь буйно процветают все формы жизни. Секрет такого разнообразия животных заключается в жарком влажном климате и огромном количестве различных сред обитания. Большинство животных и растений в ходе эволюции прекрасно адаптировались к ландшафту Индокитая и его муссонному климату, а также приобрели необычные формы и поразительные навыки поведения.-Источник записи: Рип с HDTV-записи телеканала Animal Planet HD.
Автор рипа - san007-Тип релиза: HDTVRip 720p
Контейнер: MKV-Семпл видео-Видео: AVC H.264, 1280x720p (16:9), 25p fps, ~3670 kbps, ~0.15,9 bits/pixel
Аудио 1: Russian, AC3, 48KHz, 5.1 (6 channels), 384 kbps
Аудио 2: English, AC3, 48KHz, 5.1 (6 channels), 384 kbps-Раздача в HDTV 1080i

Другие раздачи с Animal Planet HD

Планета мутантов - 1080i, 720p
В дебрях Африки - 1080i, 720p
В дебрях Индии - 1080i, 720p
В дебрях Латинской Америки - 1080i, 720p
Неизведанные острова - 1080i, 720p
Природа Ближнего Востока - 1080i, 720p
Древо жизни - 1080i, 720p
Смертельные острова - 1080i, 720p
Другой Китай с Найджелом Марвеном - 1080i, 720p
Гангстеры дикой природы - 1080i, 720p
Загадочные животные острова Джао - 1080i, 720p

Список эпизодов

E01 – Malaysia - Freaks of Nature / Малайзия - Причуды природы
E02 – Thailand - Nature's Survivors / Таиланд - Выживание в природе
E03 – Cambodia - The Water Kingdom / Камбоджа - Водное царство
E04 – Vietnam - Phoenix from the Ashes / Вьетнам - Феникс из пепла
E05 – China's Secret Garden / Юго-запад Китая - Потайные сады

MediaInfo

General
Format : Matroska
Format version : Version 4 / Version 2
File size : 1.36 GiB
Duration : 43 min 57 s
Overall bit rate : 4 440 kb/s
Movie name : Wildest Indochina E01 Malaysia - Freaks of Nature
Writing application : mkvmerge v7.7.0 ('Six Voices') 64bit
Writing library : libebml v1.3.1 + libmatroska v1.4.2
Video
ID : 1
Format : AVC
Format/Info : Advanced Video Codec
Format profile : [email protected]
Format settings : CABAC / 8 Ref Frames
Format settings, CABAC : Yes
Format settings, ReFrames : 8 frames
Codec ID : V_MPEG4/ISO/AVC
Duration : 43 min 57 s
Bit rate : 3 670 kb/s
Width : 1 280 pixels
Height : 720 pixels
Display aspect ratio : 16:9
Frame rate mode : Constant
Frame rate : 25.000 FPS
Color space : YUV
Chroma subsampling : 4:2:0
Bit depth : 8 bits
Scan type : Progressive
Bits/(Pixel*Frame) : 0.159
Stream size : 1.10 GiB (81%)
Writing library : x264 core 152 r2851kMod ba24899
Encoding settings : cabac=1 / ref=8 / deblock=1:-1:-1 / analyse=0x3:0x133 / me=umh / subme=9 / psy=1 / fade_compensate=0.00 / psy_rd=1.00:0.10 / mixed_ref=1 / me_range=24 / chroma_me=1 / trellis=2 / 8x8dct=1 / cqm=0 / deadzone=21,11 / fast_pskip=1 / chroma_qp_offset=-3 / threads=6 / lookahead_threads=1 / sliced_threads=0 / nr=0 / decimate=1 / interlaced=0 / bluray_compat=0 / constrained_intra=0 / bframes=8 / b_pyramid=2 / b_adapt=2 / b_bias=0 / direct=3 / weightb=1 / open_gop=0 / weightp=2 / keyint=250 / keyint_min=25 / scenecut=40 / intra_refresh=0 / rc_lookahead=60 / rc=2pass / mbtree=1 / bitrate=3670 / ratetol=1.0 / qcomp=0.60 / qpmin=0 / qpmax=69 / qpstep=4 / cplxblur=20.0 / qblur=0.5 / ip_ratio=1.40 / aq=1:1.00
Default : Yes
Forced : No
Audio #1
ID : 2
Format : AC-3
Format/Info : Audio Coding 3
Codec ID : A_AC3
Duration : 43 min 57 s
Bit rate mode : Constant
Bit rate : 384 kb/s
Channel(s) : 6 channels
Channel positions : Front: L C R, Side: L R, LFE
Sampling rate : 48.0 kHz
Frame rate : 31.250 FPS (1536 SPF)
Bit depth : 16 bits
Compression mode : Lossy
Stream size : 121 MiB (9%)
Title : Russian
Language : Russian
Service kind : Complete Main
Default : Yes
Forced : No
Audio #2
ID : 3
Format : AC-3
Format/Info : Audio Coding 3
Codec ID : A_AC3
Duration : 43 min 57 s
Bit rate mode : Constant
Bit rate : 384 kb/s
Channel(s) : 6 channels
Channel positions : Front: L C R, Side: L R, LFE
Sampling rate : 48.0 kHz
Frame rate : 31.250 FPS (1536 SPF)
Bit depth : 16 bits
Compression mode : Lossy
Stream size : 121 MiB (9%)
Title : English
Language : English
Service kind : Complete Main
Default : No
Forced : No

If you like the topic, please click share to help develop our site.

To download the file disable ad blocking, and reload the page.

disable adblock How to disable ad blocking?

Download by magnet link 6.65 GB Download Torrent

Login using:

Similar topics



   
Current time is: 21-Mar 06:16 :: All times are UTC + 3