Nazareth / Razamanaz (2002 20bit K2 mastering)
Жанр: hard rock
Носитель: CD
Страна-производитель диска (релиза): japan
Год издания: 1973
Издатель (лейбл): Victor
Номер по каталогу: VICP 61831
Страна исполнителя (группы): UK
Аудиокодек: FLAC (*.flac)
Тип рипа: image+.cue
Битрейт аудио: lossless
Продолжительность: 44:07
Источник (релизер): own cd
Наличие сканов в содержимом раздачи: да
Треклист:
1 Razamanaz 3:51
2 Alcatraz 4:24
3 Vigilante Man 5:21
4 Woke Up This Morning 3:53
5 Night Woman 3:29
6 Bad, Bad Boy 3:58
7 Sold My Soul 4:49
8 Too Bad, Too Sad 2:56
9 Broken Down Angel 3:53
Bonus Tracks
10 Hard Living 3:04
11 Spinning Top 3:08
12 Razamanaz -Alternate Edit Version- 3:31

Лог создания рипа

X Lossless Decoder version 20160920 (149.2)
XLD extraction logfile from 2018-10-23 13:40:14 +0300
Nazareth / Razamanaz
Used drive : Apple SuperDrive (revision )Media type : Pressed CD
Ripper mode : XLD Secure RipperDisable audio cache : OK for the drive with a cache less than 1375KiBMake use of C2 pointers : NORead offset correction : 48Max retry count : 20Gap status : Analyzed, Appended
TOC of the extracted CD Track | Start | Length | Start sector | End sector --------------------------------------------------------- 1 | 00:00:00 | 03:51:30 | 0 | 17354 2 | 03:51:30 | 04:23:70 | 17355 | 37149 3 | 08:15:25 | 05:21:25 | 37150 | 61249 4 | 13:36:50 | 03:52:70 | 61250 | 78719 5 | 17:29:45 | 03:29:48 | 78720 | 94442 6 | 20:59:18 | 03:57:30 | 94443 | 112247 7 | 24:56:48 | 04:49:07 | 112248 | 133929 8 | 29:45:55 | 02:55:68 | 133930 | 147122 9 | 32:41:48 | 03:45:10 | 147123 | 164007 10 | 36:26:58 | 03:03:07 | 164008 | 177739 11 | 39:29:65 | 03:06:18 | 177740 | 191707 12 | 42:36:08 | 03:29:72 | 191708 | 207454
AccurateRip Summary (DiscID: 0015b71a-00c846d5-b40ace0c) Track 01 : OK (v2, confidence 3/3) Track 02 : OK (v2, confidence 3/3) Track 03 : OK (v2, confidence 3/3) Track 04 : OK (v2, confidence 3/3) Track 05 : OK (v2, confidence 3/3) Track 06 : OK (v2, confidence 3/3) Track 07 : OK (v2, confidence 3/3) Track 08 : OK (v2, confidence 3/3) Track 09 : OK (v2, confidence 3/3) Track 10 : OK (v2, confidence 3/3) Track 11 : OK (v2, confidence 3/3) Track 12 : OK (v2, confidence 3/3) ->All tracks accurately ripped.
All Tracks Filename : /Users/dima/Documents/Razamanaz.flac Album gain : -8.90 dB Peak : 0.995850 CRC32 hash (test run) : 724CB4EE CRC32 hash : 724CB4EE CRC32 hash (skip zero) : 3232663A Statistics Read error : 0 Jitter error (maybe fixed) : 0 Retry sector count : 0 Damaged sector count : 0
Track 01 Pre-gap length : 00:02:00
Track gain : -9.29 dB Peak : 0.961639 CRC32 hash (test run) : 9EF431B6 CRC32 hash : 9EF431B6 CRC32 hash (skip zero) : 6D46538F AccurateRip v1 signature : 9CDA4CCA AccurateRip v2 signature : 18144B04 ->Accurately ripped (v2, confidence 3/3) Statistics Read error : 0 Jitter error (maybe fixed) : 0 Retry sector count : 0 Damaged sector count : 0
Track 02 Pre-gap length : 00:00:74
Track gain : -6.75 dB Peak : 0.967773 CRC32 hash (test run) : 327532B8 CRC32 hash : 327532B8 CRC32 hash (skip zero) : 33C26992 AccurateRip v1 signature : 9B40DB6E AccurateRip v2 signature : 21EA437B ->Accurately ripped (v2, confidence 3/3) Statistics Read error : 0 Jitter error (maybe fixed) : 0 Retry sector count : 0 Damaged sector count : 0
Track 03
Track gain : -7.80 dB Peak : 0.995850 CRC32 hash (test run) : 4A1BA9BA CRC32 hash : 4A1BA9BA CRC32 hash (skip zero) : 50A6871C AccurateRip v1 signature : 34E8BF6C AccurateRip v2 signature : B1B21DC4 ->Accurately ripped (v2, confidence 3/3) Statistics Read error : 0 Jitter error (maybe fixed) : 0 Retry sector count : 0 Damaged sector count : 0
Track 04
Track gain : -9.69 dB Peak : 0.984375 CRC32 hash (test run) : 1E39C3A0 CRC32 hash : 1E39C3A0 CRC32 hash (skip zero) : 61A22362 AccurateRip v1 signature : 6E7751B9 AccurateRip v2 signature : FE536E6F ->Accurately ripped (v2, confidence 3/3) Statistics Read error : 0 Jitter error (maybe fixed) : 0 Retry sector count : 0 Damaged sector count : 0
Track 05 Pre-gap length : 00:00:59
Track gain : -9.40 dB Peak : 0.976349 CRC32 hash (test run) : BE091E4C CRC32 hash : BE091E4C CRC32 hash (skip zero) : 1AA946E0 AccurateRip v1 signature : 954AF8CE AccurateRip v2 signature : 696A60BB ->Accurately ripped (v2, confidence 3/3) Statistics Read error : 0 Jitter error (maybe fixed) : 0 Retry sector count : 0 Damaged sector count : 0
Track 06
Track gain : -8.96 dB Peak : 0.977264 CRC32 hash (test run) : E7439625 CRC32 hash : E7439625 CRC32 hash (skip zero) : B41ED8D2 AccurateRip v1 signature : A510F0FD AccurateRip v2 signature : 3357EBBE ->Accurately ripped (v2, confidence 3/3) Statistics Read error : 0 Jitter error (maybe fixed) : 0 Retry sector count : 0 Damaged sector count : 0
Track 07
Track gain : -8.34 dB Peak : 0.985596 CRC32 hash (test run) : C47C1DF8 CRC32 hash : C47C1DF8 CRC32 hash (skip zero) : D151F559 AccurateRip v1 signature : 764D3879 AccurateRip v2 signature : 5B336A68 ->Accurately ripped (v2, confidence 3/3) Statistics Read error : 0 Jitter error (maybe fixed) : 0 Retry sector count : 0 Damaged sector count : 0
Track 08 Pre-gap length : 00:00:61
Track gain : -7.78 dB Peak : 0.967621 CRC32 hash (test run) : 6E4789EF CRC32 hash : 6E4789EF CRC32 hash (skip zero) : E32E59B9 AccurateRip v1 signature : C8BCF197 AccurateRip v2 signature : 0D3F12DE ->Accurately ripped (v2, confidence 3/3) Statistics Read error : 0 Jitter error (maybe fixed) : 0 Retry sector count : 0 Damaged sector count : 0
Track 09 Pre-gap length : 00:00:54
Track gain : -6.85 dB Peak : 0.986237 CRC32 hash (test run) : C60FF9FB CRC32 hash : C60FF9FB CRC32 hash (skip zero) : BB4623F1 AccurateRip v1 signature : D8428A50 AccurateRip v2 signature : 401A7367 ->Accurately ripped (v2, confidence 3/3) Statistics Read error : 0 Jitter error (maybe fixed) : 0 Retry sector count : 0 Damaged sector count : 0
Track 10 Pre-gap length : 00:00:67
Track gain : -8.03 dB Peak : 0.994263 CRC32 hash (test run) : 8848B015 CRC32 hash : 8848B015 CRC32 hash (skip zero) : 84AFA5D3 AccurateRip v1 signature : CA410A6B AccurateRip v2 signature : 45E0854D ->Accurately ripped (v2, confidence 3/3) Statistics Read error : 0 Jitter error (maybe fixed) : 0 Retry sector count : 0 Damaged sector count : 0
Track 11 Pre-gap length : 00:01:04
Track gain : -8.80 dB Peak : 0.994263 CRC32 hash (test run) : A226D3ED CRC32 hash : A226D3ED CRC32 hash (skip zero) : C61C02A3 AccurateRip v1 signature : 581E36D1 AccurateRip v2 signature : A8490646 ->Accurately ripped (v2, confidence 3/3) Statistics Read error : 0 Jitter error (maybe fixed) : 0 Retry sector count : 0 Damaged sector count : 0
Track 12
Track gain : -9.94 dB Peak : 0.985779 CRC32 hash (test run) : 8A4FC42C CRC32 hash : 8A4FC42C CRC32 hash (skip zero) : 76FE6205 AccurateRip v1 signature : EEFB8BAA AccurateRip v2 signature : 7AA06262 ->Accurately ripped (v2, confidence 3/3) Statistics Read error : 0 Jitter error (maybe fixed) : 0 Retry sector count : 0 Damaged sector count : 0
No errors occurred
End of status report

Содержание индексной карты (.CUE)

TITLE "Razamanaz"PERFORMER "Nazareth"CATALOG 4988002430345REM GENRE "Rock"REM DATE "1973"REM DISCID B40ACE0CREM REPLAYGAIN_ALBUM_GAIN -8.90 dBREM REPLAYGAIN_ALBUM_PEAK 0.995850FILE "Razamanaz.flac" WAVE  TRACK 01 AUDIO    TITLE "Razamanaz"    REM REPLAYGAIN_TRACK_GAIN -9.29 dB    REM REPLAYGAIN_TRACK_PEAK 0.961639    INDEX 01 00:00:00  TRACK 02 AUDIO    TITLE "Alcatraz"    REM REPLAYGAIN_TRACK_GAIN -6.75 dB    REM REPLAYGAIN_TRACK_PEAK 0.967773    INDEX 00 03:50:31    INDEX 01 03:51:30  TRACK 03 AUDIO    TITLE "Vigilante Man"    REM REPLAYGAIN_TRACK_GAIN -7.80 dB    REM REPLAYGAIN_TRACK_PEAK 0.995850    INDEX 01 08:15:25  TRACK 04 AUDIO    TITLE "Woke Up This Morning"    REM REPLAYGAIN_TRACK_GAIN -9.69 dB    REM REPLAYGAIN_TRACK_PEAK 0.984375    INDEX 01 13:36:50  TRACK 05 AUDIO    TITLE "Night Woman"    REM REPLAYGAIN_TRACK_GAIN -9.40 dB    REM REPLAYGAIN_TRACK_PEAK 0.976349    INDEX 00 17:28:61    INDEX 01 17:29:45  TRACK 06 AUDIO    TITLE "Bad, Bad Boy"    REM REPLAYGAIN_TRACK_GAIN -8.96 dB    REM REPLAYGAIN_TRACK_PEAK 0.977264    INDEX 01 20:59:18  TRACK 07 AUDIO    TITLE "Sold My Soul"    REM REPLAYGAIN_TRACK_GAIN -8.34 dB    REM REPLAYGAIN_TRACK_PEAK 0.985596    INDEX 01 24:56:48  TRACK 08 AUDIO    TITLE "Too Bad, Too Sad"    REM REPLAYGAIN_TRACK_GAIN -7.78 dB    REM REPLAYGAIN_TRACK_PEAK 0.967621    INDEX 00 29:44:69    INDEX 01 29:45:55  TRACK 09 AUDIO    TITLE "Broken Down Angel"    REM REPLAYGAIN_TRACK_GAIN -6.85 dB    REM REPLAYGAIN_TRACK_PEAK 0.986237    INDEX 00 32:40:69    INDEX 01 32:41:48  TRACK 10 AUDIO    TITLE "Hard Living"    REM REPLAYGAIN_TRACK_GAIN -8.03 dB    REM REPLAYGAIN_TRACK_PEAK 0.994263    INDEX 00 36:25:66    INDEX 01 36:26:58  TRACK 11 AUDIO    TITLE "Spinning Top"    REM REPLAYGAIN_TRACK_GAIN -8.80 dB    REM REPLAYGAIN_TRACK_PEAK 0.994263    INDEX 00 39:28:61    INDEX 01 39:29:65  TRACK 12 AUDIO    TITLE "Razamanaz (Alternate Edit)"    REM REPLAYGAIN_TRACK_GAIN -9.94 dB    REM REPLAYGAIN_TRACK_PEAK 0.985779    INDEX 01 42:36:08

Об исполнителе (группе)

Nazareth — шотландская рок-группа, созданная в 1968 году

Об альбоме (сборнике)

третий студийный альбом , вышедший в 1973 году

Состав

Dan McCafferty - lead vocals
Darrell Sweet - drums, percussion, backing vocals, liner notes
Pete Agnew - bass guitar, backing vocals
Manny Charlton - electric and acoustic guitars, slide guitar, banjo, backing vocals

If you like the topic, please click share to help develop our site.

To download the file disable ad blocking, and reload the page.

disable adblock How to disable ad blocking?

Download by magnet link 472 MB Download Torrent

Login using:

Similar topics



   
Current time is: 20-May 14:19 :: All times are UTC + 3