Alexander Martin

Kopf gegen Herz





• Жанр: Pop-Rock
• Носитель: WEB
• Год издания: 2018
• Издатель: Osnaton Records
• Страна: Germany
• Аудиокодек: FLAC (*.flac)
• Тип рипа: tracks
• Продолжительность: 00:48:39
• Источник (спасибо): NBMus
• WEB релиз: ссылка
• Наличие сканов: front

01 - Geht gar nicht (00:03:36)
02 - Helden sterben nie (00:03:54)
03 - Hier im Himmel ist die Holle (00:03:37)
04 - Ich hor doch nur nach (00:03:12)
05 - Voll am Arsch vorbei (00:03:28)
06 - Von mir aus nein (00:03:44)
07 - Dann wird mein Herz den Kopf verlier'n (00:03:04)
08 - Sach ma geht's noch (00:03:16)
09 - Die Welt (00:03:27)
10 - Wenn ich dich seh' (00:03:26)
11 - Auf wiederseh'n (00:03:40)
12 - Geh bitte weiter (00:03:24)
13 - Jedes Ende ist ein Anfang (00:03:30)
14 - Das letzte Lied (00:03:20)

-
-

• Замер динамического диапазона •

foobar2000 1.3.9 / Замер динамического диапазона (DR) 1.1.1Дата отчёта:  2018-10-22 15:19:32
--------------------------------------------------------------------------------Анализ: Alexander Martin / Kopf gegen Herz--------------------------------------------------------------------------------
DR Пики RMS Продолжительность трека--------------------------------------------------------------------------------DR6 -0.35 дБ -7.33 дБ 3:37 1-Geht gar nichtDR6 -0.35 дБ -7.41 дБ 3:54 2-Helden sterben nieDR6 -0.35 дБ -7.68 дБ 3:38 3-Hier im Himmel ist die HölleDR6 -0.35 дБ -8.74 дБ 3:12 4-Ich hör doch nur nachDR6 -0.35 дБ -7.40 дБ 3:29 5-Voll am Arsch vorbeiDR6 -0.35 дБ -7.12 дБ 3:44 6-Von mir aus neinDR6 -0.35 дБ -7.84 дБ 3:05 7-Dann wird mein Herz den Kopf verlier'nDR6 -0.35 дБ -7.79 дБ 3:16 8-Sach ma geht's nochDR6 -0.35 дБ -8.52 дБ 3:28 9-Die WeltDR6 -0.34 дБ -7.77 дБ 3:27 10-Wenn ich dich seh'DR6 -0.34 дБ -8.21 дБ 3:41 11-Auf wiederseh'nDR6 -0.35 дБ -7.83 дБ 3:24 12-Geh bitte weiterDR6 -0.35 дБ -8.15 дБ 3:30 13-Jedes Ende ist ein AnfangDR8 -0.35 дБ -11.74 дБ 3:21 14-Das letzte Lied--------------------------------------------------------------------------------
Количество треков: 14Реальные значения DR: DR6
Частота: 44100 ГцКаналов: 2Разрядность: 16Битрейт: 730 кбит/сКодек: FLAC================================================================================
-

• Лог проверки качества •

-----------------------
DON'T MODIFY THIS FILE
-----------------------
PERFORMER: auCDtect Task Manager, ver. 1.5.1RC3 build 1.5.1.4Copyright (c) 2008-2010 y-soft. All rights reservedhttp://y-soft.org
ANALYZER: auCDtect: CD records authenticity detector, version 0.8.2Copyright (c) 2004 Oleg Berngardt. All rights reserved.Copyright (c) 2004 Alexander Djourik. All rights reserved.
FILE: Alexander Martin-14.flac Size: 18788201 Hash: 4C2C99B5EA03BC6396C390E0F16DE6A8 Accuracy: -m0 Conclusion: CDDA 92% Signature: 2C265D5EBA319712B1737340368C98A27814D9B8FILE: Alexander Martin-13.flac Size: 28382692 Hash: 394B34127E0519B17932CF4C410612F2 Accuracy: -m0 Conclusion: CDDA 100% Signature: 5FBA8312CA99A661D97560D511AEBEFA0CA64B74FILE: Alexander Martin-12.flac Size: 28589907 Hash: 86EE55E728644CF0BDFFF0D298D7D206 Accuracy: -m0 Conclusion: CDDA 100% Signature: 025C8A59B22AF73E8C8E21B3B81E6B09EE1118BAFILE: Alexander Martin-11.flac Size: 28044132 Hash: E47F089419F2737EF16550CA69C79DAE Accuracy: -m0 Conclusion: CDDA 100% Signature: D1D67FEA437381BEC7F8DA84DCE6B1D4E928B54AFILE: Alexander Martin-10.flac Size: 27762079 Hash: D50F58C0AC56B0D4434BCBA3E602E4BB Accuracy: -m0 Conclusion: CDDA 100% Signature: E67D09C8236E878088ECEBFA52D6384EE2193A87FILE: Alexander Martin-09.flac Size: 26033412 Hash: E15CB86B31198BB3FA5CF64B7773CFC3 Accuracy: -m0 Conclusion: CDDA 100% Signature: B381CC1440F1E458AB53699FD86DD1BBA9D524A2FILE: Alexander Martin-08.flac Size: 26343591 Hash: 9556E1DF1FF819F25F784F3973E4ED93 Accuracy: -m0 Conclusion: CDDA 100% Signature: 59B7B958172B0A1D6B00CF2778133C2F4823E559FILE: Alexander Martin-07.flac Size: 24417922 Hash: 94F39C654B32762A6A05CFEB56A0254A Accuracy: -m0 Conclusion: CDDA 100% Signature: 307A8259F9B8F9DC21939FC68DBBC5264489CAD1FILE: Alexander Martin-06.flac Size: 31583835 Hash: B4A03FF1C41BF10565E0E50994C367B5 Accuracy: -m0 Conclusion: CDDA 100% Signature: 38E40B76C733ABD55E61C73671A4F2BB18CEB064FILE: Alexander Martin-05.flac Size: 28670207 Hash: C0B989CEBE79D62909D34F63D10ACC54 Accuracy: -m0 Conclusion: CDDA 100% Signature: F5E558E2955F1BD48CA237325E110D58161A8237FILE: Alexander Martin-04.flac Size: 24594474 Hash: DF3BC33E5E8AC1974E8DEE00A29BA4FA Accuracy: -m0 Conclusion: CDDA 100% Signature: 60C20F1989A08B570010FB3C6CC1D7E856B62AB3FILE: Alexander Martin-03.flac Size: 28631840 Hash: F5554A098D76AB237191CA457738CF8F Accuracy: -m0 Conclusion: CDDA 99% Signature: 535BC7750D55AA18228CDA1D64D23A80FC219551FILE: Alexander Martin-02.flac Size: 31699782 Hash: 6726B42D73530ACB4D52AC2846137A9C Accuracy: -m0 Conclusion: CDDA 100% Signature: 937394E0F67D4277373084075FCADD3765D44321FILE: Alexander Martin-01.flac Size: 29865598 Hash: 5131793F013BA40A9857AB162CC371DE Accuracy: -m0 Conclusion: CDDA 100% Signature: E1A692F942BEB63B7B932CD07F1FEBE7BE151174
-

If you like the topic, please click share to help develop our site.

To download the file disable ad blocking, and reload the page.

disable adblock How to disable ad blocking?

Download by magnet link 360 MB Download Torrent

Login using:

Similar topics



   
Current time is: 25-Mar 19:31 :: All times are UTC + 3