Название: Милые кости
Оригинальное название: The Lovely Bones
Год выпуска: 2009
Жанр: Фэнтези, триллер, драма, криминал, детектив
Выпущено: США, Великобритания, Новая Зеландия, DreamWorks SKG, Film4, Key Creatives, WingNut Films
Режиссер: Питер Джексон
В ролях: Марк Уолберг, Рэйчел Вайз, Сьюзен Сарандон, Стэнли Туччи, Майкл Империоли, Сирша Ронан, Роуз МакИвер, Кристиан Томас Ашдейл, Рис Ричи, Кэролин Дандо
О фильме: Фильм рассказывает о переживаниях четырнадцатилетней девушки, изнасилованной и убитой маньяком-соседом. Наблюдая за жизнью домочадцев с небес, героиня мечтает о простых подростковых радостях и жаждет поимки душегуба... Экранизация романа Элис Сиболд.
Качество: BDRip 720p
Размер: 6.23 ГБ
Продолжительность: 02:15:30
Видео: MPEG-4 AVC, 4214 Kбит/с, 1280x544
Аудио 1: русский, 48 kHz, AC3, 6 ch, 640 kbps avg, [Дублированный, студия Пифагор]
Аудио 3: русский, 48 kHz, AC3, 6 ch, 384 kbps avg, [Любительский двухголосый]
Аудио 4: русский, 48 kHz, AC3, 6 ch, 384 kbps avg, [Авторский, Юрий Сербин]
Аудио 5: русский, 48 kHz, AC3, 6 ch, 384 kbps avg, [Авторский, А. Яковлев]
Аудио 6: английский, 48 kHz, AC3, 6 ch, 448 kbps avg, [Оригинал]
Субтитры 1: русские
Субтитры 2: английские
Исходник: posodobl (Кинозал)
Сравнение с исходником

Награды

Оскар, 2010 год
Номинации (1):
Лучшая мужская роль второго плана (Стэнли Туччи)
Золотой глобус, 2010 год
Номинации (1):
Лучшая мужская роль второго плана (Стэнли Туччи)
Британская академия, 2010 год
Номинации (2):
Лучшая женская роль (Сирша Ронан)
Лучшая мужская роль второго плана (Стэнли Туччи)
Сатурн, 2010 год
Победитель (1):
Лучший молодой актер/актриса (Сирша Ронан)
Номинации (3):
Лучший актер второго плана (Стэнли Туччи)
Лучшая актриса второго плана (Сьюзен Сарандон)
Лучшая музыка
Премия Гильдии актеров, 2010 год
Номинации (1):
Лучшая мужская роль второго плана (Стэнли Туччи)

MediaInfo + Лог х264

Общее
Уникальный идентификатор : 188324922303022979093258754983389829920 (0x8DAE0F8AF02FE4258D6B7DD470041B20)
Полное имя : D:VideoMilye kosti.2009.BDRip.720p.mkv
Формат : Matroska
Версия формата : Version 4 / Version 2
Размер файла : 6,23 Гбайт
Продолжительность : 2 ч. 15 м.
Общий поток : 6585 Кбит/сек
Дата кодирования : UTC 2014-05-29 15:45:04
Программа кодирования : mkvmerge v6.9.1 ('Blue Panther') 64bit built on Apr 18 2014 18:23:38
Библиотека кодирования : libebml v1.3.0 + libmatroska v1.4.1
Видео
Идентификатор : 1
Формат : AVC
Формат/Информация : Advanced Video Codec
Профиль формата : [email protected]
Параметр CABAC формата : Да
Параметр ReFrames формата : 9 кадров
Идентификатор кодека : V_MPEG4/ISO/AVC
Продолжительность : 2 ч. 15 м.
Битрейт : 4214 Кбит/сек
Ширина : 1280 пикселей
Высота : 544 пикселя
Соотношение сторон : 2,35:1
Режим частоты кадров : Постоянный
Частота кадров : 23,976 кадра/сек
Цветовое пространство : YUV
Субдискретизация насыщенности : 4:2:0
Битовая глубина : 8 бит
Тип развёртки : Прогрессивная
Бит/(Пиксели*Кадры) : 0.252
Размер потока : 3,99 Гбайт (64%)
Заголовок : BDRip -- STarankov
Библиотека кодирования : x264 core 138 r2358 9e941d1
Настройки программы : cabac=1 / ref=9 / deblock=1:-1:-1 / analyse=0x3:0x113 / me=umh / subme=10 / psy=1 / psy_rd=1.00:0.15 / mixed_ref=1 / me_range=32 / chroma_me=1 / trellis=2 / 8x8dct=1 / cqm=0 / deadzone=21,11 / fast_pskip=0 / chroma_qp_offset=-3 / threads=6 / lookahead_threads=1 / sliced_threads=0 / nr=0 / decimate=1 / interlaced=0 / bluray_compat=0 / constrained_intra=0 / bframes=8 / b_pyramid=2 / b_adapt=2 / b_bias=0 / direct=1 / weightb=1 / open_gop=0 / weightp=2 / keyint=230 / keyint_min=23 / scenecut=40 / intra_refresh=0 / rc_lookahead=40 / rc=crf / mbtree=0 / crf=20.0 / qcomp=0.60 / qpmin=0 / qpmax=69 / qpstep=4 / vbv_maxrate=40000 / vbv_bufsize=50000 / crf_max=0.0 / nal_hrd=none / ip_ratio=1.40 / pb_ratio=1.30 / aq=1:1.00
Язык : English
Default : Да
Forced : Нет
Аудио #1
Идентификатор : 2
Формат : AC-3
Формат/Информация : Audio Coding 3
Расширение режима : CM (complete main)
Параметр Endianness формата : Big
Идентификатор кодека : A_AC3
Продолжительность : 2 ч. 15 м.
Вид битрейта : Постоянный
Битрейт : 640 Кбит/сек
Каналы : 6 каналов
Расположение каналов : Front: L C R, Side: L R, LFE
Частота : 48,0 КГц
Битовая глубина : 16 бит
Метод сжатия : С потерями
Размер потока : 620 Мбайт (10%)
Заголовок : DUB (студия Пифагор)
Язык : Russian
Default : Да
Forced : Нет
Аудио #2
Идентификатор : 3
Формат : AC-3
Формат/Информация : Audio Coding 3
Расширение режима : CM (complete main)
Параметр Endianness формата : Big
Идентификатор кодека : A_AC3
Продолжительность : 2 ч. 15 м.
Вид битрейта : Постоянный
Битрейт : 384 Кбит/сек
Каналы : 6 каналов
Расположение каналов : Front: L C R, Side: L R, LFE
Частота : 48,0 КГц
Битовая глубина : 16 бит
Метод сжатия : С потерями
Размер потока : 372 Мбайт (6%)
Заголовок : DVO (любительский)
Язык : Russian
Default : Нет
Forced : Нет
Аудио #3
Идентификатор : 4
Формат : AC-3
Формат/Информация : Audio Coding 3
Расширение режима : CM (complete main)
Параметр Endianness формата : Big
Идентификатор кодека : A_AC3
Продолжительность : 2 ч. 15 м.
Вид битрейта : Постоянный
Битрейт : 384 Кбит/сек
Каналы : 6 каналов
Расположение каналов : Front: L C R, Side: L R, LFE
Частота : 48,0 КГц
Битовая глубина : 16 бит
Метод сжатия : С потерями
Размер потока : 372 Мбайт (6%)
Заголовок : AVO (Юрий Сербин)
Язык : Russian
Default : Нет
Forced : Нет
Аудио #4
Идентификатор : 5
Формат : AC-3
Формат/Информация : Audio Coding 3
Расширение режима : CM (complete main)
Параметр Endianness формата : Big
Идентификатор кодека : A_AC3
Продолжительность : 2 ч. 15 м.
Вид битрейта : Постоянный
Битрейт : 384 Кбит/сек
Каналы : 6 каналов
Расположение каналов : Front: L C R, Side: L R, LFE
Частота : 48,0 КГц
Битовая глубина : 16 бит
Метод сжатия : С потерями
Размер потока : 372 Мбайт (6%)
Заголовок : AVO (А. Яковлев)
Язык : Russian
Default : Нет
Forced : Нет
Аудио #5
Идентификатор : 6
Формат : AC-3
Формат/Информация : Audio Coding 3
Расширение режима : CM (complete main)
Параметр Endianness формата : Big
Идентификатор кодека : A_AC3
Продолжительность : 2 ч. 15 м.
Вид битрейта : Постоянный
Битрейт : 448 Кбит/сек
Каналы : 6 каналов
Расположение каналов : Front: L C R, Side: L R, LFE
Частота : 48,0 КГц
Битовая глубина : 16 бит
Метод сжатия : С потерями
Размер потока : 434 Мбайт (7%)
Заголовок : Original
Язык : English
Default : Нет
Forced : Нет
Текст #1
Идентификатор : 7
Формат : UTF-8
Идентификатор кодека : S_TEXT/UTF8
Идентификатор кодека/Информация : UTF-8 Plain Text
Заголовок : русский
Язык : Russian
Default : Нет
Forced : Нет
Текст #2
Идентификатор : 8
Формат : UTF-8
Идентификатор кодека : S_TEXT/UTF8
Идентификатор кодека/Информация : UTF-8 Plain Text
Заголовок : английский
Default : Нет
Forced : Нет
---[Information] [29.05.2014 8:27:00] raw [info]: 1280x544p 1:1 @ 24000/1001 fps (cfr)
---[Information] [29.05.2014 8:27:00] x264 [info]: using SAR=1/1
---[Information] [29.05.2014 8:27:00] x264 [info]: using cpu capabilities: MMX2 SSE2Fast SSSE3 SSE4.2
---[Information] [29.05.2014 8:27:00] x264 [info]: profile High, level 4.1
---[Information] [29.05.2014 16:03:27] x264 [info]: frame I:1734 Avg QP:19.30 size:113599
---[Information] [29.05.2014 16:03:27] x264 [info]: frame P:40541 Avg QP:20.46 size: 42644
---[Information] [29.05.2014 16:03:27] x264 [info]: frame B:152657 Avg QP:22.95 size: 16294
---[Information] [29.05.2014 16:03:27] x264 [info]: consecutive B-frames: 1.9% 2.3% 6.6% 13.9% 22.0% 44.2% 5.2% 1.7% 2.2%
---[Information] [29.05.2014 16:03:27] x264 [info]: mb I I16..4: 16.4% 70.3% 13.3%
---[Information] [29.05.2014 16:03:27] x264 [info]: mb P I16..4: 1.2% 17.8% 1.2% P16..4: 33.9% 24.0% 12.3% 0.0% 0.0% skip: 9.6%
---[Information] [29.05.2014 16:03:27] x264 [info]: mb B I16..4: 0.0% 2.1% 0.1% B16..8: 41.8% 10.2% 3.1% direct: 7.1% skip:35.5% L0:43.5% L1:46.8% BI: 9.6%
---[Information] [29.05.2014 16:03:27] x264 [info]: 8x8 transform intra:87.3% inter:65.4%
---[Information] [29.05.2014 16:03:27] x264 [info]: coded y,uvDC,uvAC intra: 95.2% 90.5% 76.3% inter: 32.1% 27.1% 9.1%
---[Information] [29.05.2014 16:03:27] x264 [info]: i16 v,h,dc,p: 28% 11% 23% 38%
---[Information] [29.05.2014 16:03:27] x264 [info]: i8 v,h,dc,ddl,ddr,vr,hd,vl,hu: 8% 7% 11% 10% 14% 13% 13% 11% 13%
---[Information] [29.05.2014 16:03:27] x264 [info]: i4 v,h,dc,ddl,ddr,vr,hd,vl,hu: 9% 8% 3% 9% 16% 15% 15% 12% 14%
---[Information] [29.05.2014 16:03:27] x264 [info]: i8c dc,h,v,p: 48% 17% 15% 20%
---[Information] [29.05.2014 16:03:27] x264 [info]: Weighted P-Frames: Y:7.0% UV:3.8%
---[Information] [29.05.2014 16:03:27] x264 [info]: ref P L0: 46.8% 13.4% 18.8% 5.8% 5.2% 3.2% 3.1% 1.6% 1.7% 0.3% 0.0%
---[Information] [29.05.2014 16:03:27] x264 [info]: ref B L0: 71.5% 13.3% 6.2% 3.3% 2.5% 1.9% 0.9% 0.3%
---[Information] [29.05.2014 16:03:27] x264 [info]: ref B L1: 91.9% 8.1%
---[Information] [29.05.2014 16:03:27] x264 [info]: kb/s:4342.43
---[Information] [29.05.2014 16:03:27] encoded 194932 frames, 7.12 fps, 4342.43 kb/s
--[Information] [29.05.2014 16:03:28] Final statistics
---[Information] [29.05.2014 16:03:28] Constant Quality Mode: Quality 20 computed...
---[Information] [29.05.2014 16:03:28] Video Bitrate Obtained (approximate): 4343 kbit/s
--[Information] [29.05.2014 16:03:28] MediaInfo
---[Information] File: D:RipMilye kosti.2009.BDRipMilye kosti.2009.BDRip.720p.mkv

Скриншоты


If you like the topic, please click share to help develop our site.

To download the file disable ad blocking, and reload the page.

disable adblock How to disable ad blocking?

Download by magnet link 6.23 GB Download Torrent

Login using:

Similar topics

Палачи / Gli esecutori (1976) DVDRip
 1.36 GB   1 | 0   17-Jun-16 21:07   9
Братки / Häjyt (1999) BDRip 1080p от FREE-DOWNLOAD.SU | P2, A
 7.45 GB   0 | 0   01-May-17 12:30   4
Хозяева ночи / We Own the Night (2007) BDRip-AVC
 3.2 GB   3 | 1   17-Jun-16 21:10   3


   
Current time is: 20-May 00:28 :: All times are UTC + 3