Не волнуйся, он далеко не уйдёт / Don't Worry, He Won't Get Far on Foot
Страна: США, Франция
Жанр: драма, комедия, биография
Год выпуска: 2018
Продолжительность: 01:54:19
Перевод: Любительский (многоголосый закадровый) HDRezka Studio
Субтитры: английские (SDH), русские (SDH by NauTay)
Оригинальная аудиодорожка: английский
Режиссер: Гас Ван Сент / Gus Van Sant
В ролях: Хоакин Феникс, Джона Хилл, Руни Мара, Джек Блэк, Тони Гринхэнд, Бет Дитто, Марк Веббер, Ronnie Adrian, Ким Гордон, Удо Кир
Описание: Джон не умел вовремя останавливаться, когда дело касалось быстрой езды, красивых женщин и опасных шуток. Прихватив случайного приятеля на вечеринке, он садится в машину и чудом остаётся в живых. С этого момента начинается горькая и вдохновляющая, правдивая и трогательная история человека, который потерял все, и вынужден двигаться дальше, чтобы обрести себя как одного из самых талантливых художников-карикатуристов Америки.
Сэмпл: https://yadi.sk/i/z4AFoKjowuDEKg

Тип релиза: BDRip 720p
Контейнер: MKV
Видео: AVC / 1280x720 / 23.976 fps / 9911 kbps / [email protected]
Аудио 1: Rus AC3 2.0 / 48 kHz / 192 kbps / 16-bit
Аудио 2: Eng AC3 5.1 / 48 kHz / 640 kbps / 16-bit
Формат субтитров: softsub (SRT)

MediaInfo

GeneralUnique ID                                : 266072609334298267850682919628422510508 (0xC82BB87743774530F6D1CD6FFB2BF7AC)Complete name                            : C:\u_download\Don't.Worry.He.Won't.Get.Far.on.Foot.2018.BDRip.720p.Rus.Eng.mkvFormat                                   : MatroskaFormat version                           : Version 4File size                                : 8.58 GiBDuration                                 : 1 h 54 minOverall bit rate                         : 10.7 Mb/sEncoded date                             : UTC 2018-10-22 09:54:12Writing application                      : mkvmerge v28.0.0 ('Voice In My Head') 64-bitWriting library                          : libebml v1.3.6 + libmatroska v1.4.9
VideoID : 1Format : AVCFormat/Info : Advanced Video CodecFormat profile : [email protected] settings : CABAC / 9 Ref FramesFormat settings, CABAC : YesFormat settings, RefFrames : 9 framesCodec ID : V_MPEG4/ISO/AVCDuration : 1 h 54 minBit rate : 9 911 kb/sWidth : 1 280 pixelsHeight : 720 pixelsDisplay aspect ratio : 16:9Frame rate mode : ConstantFrame rate : 23.976 (24000/1001) FPSColor space : YUVChroma subsampling : 4:2:0Bit depth : 8 bitsScan type : ProgressiveBits/(Pixel*Frame) : 0.449Stream size : 7.91 GiB (92%)Writing library : x264 core 157 r2935 545de2fEncoding settings : cabac=1 / ref=9 / deblock=1:-3:-3 / analyse=0x3:0x133 / me=umh / subme=11 / psy=1 / psy_rd=1.00:0.15 / mixed_ref=1 / me_range=24 / chroma_me=1 / trellis=2 / 8x8dct=1 / cqm=0 / deadzone=21,11 / fast_pskip=0 / chroma_qp_offset=-3 / threads=8 / lookahead_threads=1 / sliced_threads=0 / nr=0 / decimate=1 / interlaced=0 / bluray_compat=0 / constrained_intra=0 / bframes=9 / b_pyramid=2 / b_adapt=2 / b_bias=0 / direct=1 / weightb=1 / open_gop=0 / weightp=2 / keyint=240 / keyint_min=23 / scenecut=40 / intra_refresh=0 / rc_lookahead=40 / rc=crf / mbtree=0 / crf=16.2 / qcomp=0.60 / qpmin=0 / qpmax=69 / qpstep=4 / vbv_maxrate=50000 / vbv_bufsize=62500 / crf_max=0.0 / nal_hrd=none / filler=0 / ip_ratio=1.40 / pb_ratio=1.30 / aq=2:0.80Language : EnglishDefault : YesForced : No
Audio #1ID : 2Format : AC-3Format/Info : Audio Coding 3Commercial name : Dolby DigitalCodec ID : A_AC3Duration : 1 h 54 minBit rate mode : ConstantBit rate : 192 kb/sChannel(s) : 2 channelsChannel layout : L RSampling rate : 48.0 kHzFrame rate : 31.250 FPS (1536 SPF)Bit depth : 16 bitsCompression mode : LossyStream size : 157 MiB (2%)Title : MVO HDRezka StudioLanguage : RussianService kind : Complete MainDefault : YesForced : No
Audio #2ID : 3Format : AC-3Format/Info : Audio Coding 3Commercial name : Dolby DigitalCodec ID : A_AC3Duration : 1 h 54 minBit rate mode : ConstantBit rate : 640 kb/sChannel(s) : 6 channelsChannel layout : L R C LFE Ls RsSampling rate : 48.0 kHzFrame rate : 31.250 FPS (1536 SPF)Bit depth : 16 bitsCompression mode : LossyStream size : 523 MiB (6%)Title : OriginalLanguage : EnglishService kind : Complete MainDefault : NoForced : No
Text #1ID : 4Format : UTF-8Codec ID : S_TEXT/UTF8Codec ID/Info : UTF-8 Plain TextDuration : 1 h 53 minBit rate : 116 b/sCount of elements : 1946Stream size : 96.4 KiB (0%)Title : SDH by NautayLanguage : RussianDefault : NoForced : No
Text #2ID : 5Format : UTF-8Codec ID : S_TEXT/UTF8Codec ID/Info : UTF-8 Plain TextDuration : 1 h 53 minBit rate : 72 b/sCount of elements : 1946Stream size : 60.2 KiB (0%)Title : SDHLanguage : EnglishDefault : NoForced : No
Menu00:00:00.000 : :00:00:00.00000:07:49.761 : :00:07:49.76100:13:09.622 : :00:13:09.62200:21:26.076 : :00:21:26.07600:27:13.966 : :00:27:13.96600:35:06.479 : :00:35:06.47900:42:30.673 : :00:42:30.67300:48:53.556 : :00:48:53.55600:56:36.310 : :00:56:36.31001:02:30.497 : :01:02:30.49701:09:25.953 : :01:09:25.95301:17:00.282 : :01:17:00.28201:23:36.637 : :01:23:36.63701:31:06.544 : :01:31:06.54401:37:58.748 : :01:37:58.74801:46:20.833 : :01:46:20.833

x264, md5

x264:
---[Information] [18.10.2018 10:32:43] x264 [info]: frame I:1255 Avg QP:14.55 size:144848
---[Information] [18.10.2018 10:32:43] x264 [info]: frame P:30114 Avg QP:15.62 size: 83915
---[Information] [18.10.2018 10:32:43] x264 [info]: frame B:133103 Avg QP:17.63 size: 43496
---[Information] [18.10.2018 10:32:43] x264 [info]: consecutive B-frames: 1.1% 0.6% 2.9% 10.1% 10.3% 65.4% 4.8% 1.1% 2.0% 1.7%
BDRip: file hash md5: 4C2121AEC6DA58BB7A80C18D1E809D34
Sample: file hash md5: BA09C413A77B09502F0099216A0B5238

Скриншоты

BDRip:                  Original (Resize):      Original:







If you like the topic, please click share to help develop our site.

To download the file disable ad blocking, and reload the page.

disable adblock How to disable ad blocking?

Download by magnet link 8.58 GB Download Torrent

Login using:

Similar topics



   
Current time is: 19-May 23:19 :: All times are UTC + 3