Babylones

Le désordre pour le style





• Жанр: Pop-Rock
• Носитель: WEB
• Год издания: 2018
• Издатель: L-A be
• Страна: Canada
• Аудиокодек: FLAC (*.flac)
• Тип рипа: tracks
• Продолжительность: 00:31:15
• Источник (спасибо): NBMus
• WEB релиз: ссылка
• Наличие сканов: front

01 - Dans le noir (00:02:44)
02 - Nunavut (00:03:34)
03 - Le desordre pour le style (00:04:01)
04 - Lifts (00:02:51)
05 - Divertissement (pour les gens distingues) (00:03:42)
06 - Millionnaires (00:01:25)
07 - Confessions (00:03:33)
08 - Rodeo (00:03:19)
09 - Tout ce que je possede (00:01:57)
10 - Prophetes (00:04:05)

-
-

• Замер динамического диапазона •

foobar2000 1.3.9 / Замер динамического диапазона (DR) 1.1.1Дата отчёта:  2018-10-22 15:20:49
--------------------------------------------------------------------------------Анализ: Babylones / Le désordre pour le style--------------------------------------------------------------------------------
DR Пики RMS Продолжительность трека--------------------------------------------------------------------------------DR7 -0.42 дБ -8.89 дБ 2:45 1-Dans le noirDR8 -0.39 дБ -10.07 дБ 3:34 2-NunavutDR8 -0.55 дБ -10.55 дБ 4:02 3-Le désordre pour le styleDR8 -0.44 дБ -10.05 дБ 2:51 4-LiftsDR8 -0.47 дБ -11.81 дБ 3:43 5-Divertissement (pour les gens distingués)DR8 -0.43 дБ -9.48 дБ 1:26 6-MillionnairesDR7 -0.32 дБ -9.43 дБ 3:34 7-ConfessionsDR7 -0.46 дБ -9.22 дБ 3:19 8-RodéoDR9 -0.47 дБ -12.27 дБ 1:58 9-Tout ce que je possèdeDR7 -0.34 дБ -9.39 дБ 4:05 10-Prophètes--------------------------------------------------------------------------------
Количество треков: 10Реальные значения DR: DR8
Частота: 44100 ГцКаналов: 2Разрядность: 16Битрейт: 957 кбит/сКодек: FLAC================================================================================
-

• Лог проверки качества •

-----------------------
DON'T MODIFY THIS FILE
-----------------------
PERFORMER: auCDtect Task Manager, ver. 1.5.1RC3 build 1.5.1.4Copyright (c) 2008-2010 y-soft. All rights reservedhttp://y-soft.org
ANALYZER: auCDtect: CD records authenticity detector, version 0.8.2Copyright (c) 2004 Oleg Berngardt. All rights reserved.Copyright (c) 2004 Alexander Djourik. All rights reserved.
FILE: Babylones-10.flac Size: 29488105 Hash: B7C9C59E85CA89295C8AB220DAE99848 Accuracy: -m0 Conclusion: CDDA 100% Signature: 62919C168DF8EECFDC266C5AB0A0C4F9D26B08DDFILE: Babylones-09.flac Size: 9977663 Hash: 14B480E6812667CBD4B2C9CEB0C58A24 Accuracy: -m0 Conclusion: CDDA 100% Signature: 83CDD98EAA28C960804A2B1F5B3FB29E60E7CF16FILE: Babylones-08.flac Size: 24357615 Hash: 0C9E766B198062BF0F93EB21783EA178 Accuracy: -m0 Conclusion: CDDA 100% Signature: 2FAF77A36B7B329BA6095EC4BC578642349FB6B1FILE: Babylones-07.flac Size: 26644531 Hash: 0A607ECB8002A74B5F9A296D7665E81B Accuracy: -m0 Conclusion: CDDA 62% Signature: 5DF7DA236E0AA42A762166901164009402F89646FILE: Babylones-06.flac Size: 9394496 Hash: A5503F54C058037EF90F26F09670AAC0 Accuracy: -m0 Conclusion: CDDA 87% Signature: BE5E31439DCA0C064EB81EA36E754FE2E5008A1AFILE: Babylones-05.flac Size: 20647217 Hash: 377AFCA2C5F76CE3FCB0A8E017A7EDB0 Accuracy: -m0 Conclusion: CDDA 100% Signature: 2356B428EB3A493D2BBBA298AC59B022099CA783FILE: Babylones-04.flac Size: 21184067 Hash: D8008770D4110CA22386DB57AF3D60CC Accuracy: -m0 Conclusion: CDDA 100% Signature: 4305F0E205C38D51C2749EAFE264D405C9956E44FILE: Babylones-03.flac Size: 26403281 Hash: BF18B9D7C81B7F9CE7CF28E447B325D9 Accuracy: -m0 Conclusion: CDDA 100% Signature: 2E648BB9F24E133DC086215CD868066BA8CD7D8DFILE: Babylones-02.flac Size: 24335390 Hash: 5D50E458F3CCEE5AA600F5145DEFF5B7 Accuracy: -m0 Conclusion: CDDA 100% Signature: 9D579EF5250CE3999479089B528B982FD93BA2F6FILE: Babylones-01.flac Size: 19773014 Hash: C50350B32E33712037C6A813A69F5752 Accuracy: -m0 Conclusion: CDDA 100% Signature: 5C8E078C1E4FD85EDBDFB25604E10667832D315F
-

If you like the topic, please click share to help develop our site.

To download the file disable ad blocking, and reload the page.

disable adblock How to disable ad blocking?

Download by magnet link 203 MB Download Torrent

Login using:

Similar topics



   
Current time is: 20-May 13:26 :: All times are UTC + 3