2Cellos / 2Cellos (Japanese Edition)
Жанр: Symphonic, Metal
Носитель: CD
Страна-производитель диска (релиза): Japan
Год издания: 2011
Страна исполнителя (группы): Хорватия
Аудиокодек: FLAC (*.flac)
Тип рипа: tracks+.cue
Битрейт аудио: lossless
Продолжительность: 00:46:08
Источник (релизер): Спасибо 24bit-music.info
Наличие сканов в содержимом раздачи: да
Треклист:
01. Where The Streets Have No Name (U2)
02. Misirlou [Theme From "Pulp Fiction"] (Dick Dale)
03. Use Somebody (Kings of Leon)
04. Smooth Criminal (Michael Jackson)
05. Fragile (Sting)
06. The Resistance (Muse)
07. Hurt (Trent Reznor/Johnny Cash)
08. Welcome To The Jungle (Guns N' Roses)
09. Human Nature (Michael Jackson)
10. Viva La Vida (Coldplay)
11. Smells Like Teen Spirit (Nirvana)
12. With Or Without You (U2)
13. Fields of Gold

Лог создания рипа

Exact Audio Copy V1.0 beta 3 from 29. August 2011
EAC extraction logfile from 17. November 2013, 17:49
2Cellos / 2Cellos
Used drive : HL-DT-STDVDRAM GH24NS50 Adapter: 2 ID: 1
Read mode : SecureUtilize accurate stream : YesDefeat audio cache : YesMake use of C2 pointers : No
Read offset correction : 667Overread into Lead-In and Lead-Out : NoFill up missing offset samples with silence : YesDelete leading and trailing silent blocks : NoNull samples used in CRC calculations : YesUsed interface : Native Win32 interface for Win NT & 2000Gap handling : Appended to previous track
Used output format : User Defined EncoderSelected bitrate : 1024 kBit/sQuality : HighAdd ID3 tag : NoCommand line compressor : D:\Program Files\FLAC\flac.exeAdditional command line options : -8 -V -T "ARTIST=%artist%" -T "TITLE=%title%" -T "ALBUM=%albumtitle%" -T "DATE=%year%" -T "TRACKNUMBER=%tracknr%" -T "GENRE=%genre%" -T "PERFORMER=%albuminterpret%" -T "COMPOSER=%composer%" %haslyrics%--tag-from-file=LYRICS="%lyricsfile%"%haslyrics% -T "ALBUMARTIST=%albumartist%" -T "DISCNUMBER=%cdnumber%" -T "TOTALDISCS=%totalcds%" -T "TOTALTRACKS=%numtracks%" -T "COMMENT=%comment%" %source% -o %dest%
TOC of the extracted CD
Track | Start | Length | Start sector | End sector --------------------------------------------------------- 1 | 0:00.00 | 4:04.46 | 0 | 18345 2 | 4:04.46 | 2:14.43 | 18346 | 28438 3 | 6:19.14 | 3:29.00 | 28439 | 44113 4 | 9:48.14 | 4:12.14 | 44114 | 63027 5 | 14:00.28 | 3:28.49 | 63028 | 78676 6 | 17:29.02 | 3:49.65 | 78677 | 95916 7 | 21:18.67 | 4:30.05 | 95917 | 116171 8 | 25:48.72 | 3:11.52 | 116172 | 130548 9 | 29:00.49 | 2:49.00 | 130549 | 143223 10 | 31:49.49 | 3:42.40 | 143224 | 159913 11 | 35:32.14 | 2:52.13 | 159914 | 172826 12 | 38:24.27 | 4:54.00 | 172827 | 194876 13 | 43:18.27 | 2:54.62 | 194877 | 207988
Track 1
Filename D:\01 - Where the Streets Have No Name.wav
Pre-gap length 0:00:02.00
Peak level 87.2 % Extraction speed 1.0 X Track quality 100.0 % Test CRC 1812D10E Copy CRC 1812D10E Accurately ripped (confidence 9) [4DB69E74] (AR v2) Copy OK
Track 2
Filename D:\02 - Misirlou (Theme from Pulp Fiction).wav
Pre-gap length 0:00:02.35
Peak level 90.0 % Extraction speed 1.0 X Track quality 100.0 % Test CRC D36F0054 Copy CRC D36F0054 Accurately ripped (confidence 9) [B7BA8F9D] (AR v2) Copy OK
Track 3
Filename D:\03 - Use Somebody.wav
Pre-gap length 0:00:01.26
Peak level 99.7 % Extraction speed 1.1 X Track quality 100.0 % Test CRC 17755254 Copy CRC 17755254 Accurately ripped (confidence 9) [787ACB4B] (AR v2) Copy OK
Track 4
Filename D:\04 - Smooth Criminal.wav
Pre-gap length 0:00:01.46
Peak level 97.1 % Extraction speed 1.3 X Track quality 100.0 % Test CRC 2BD42AAD Copy CRC 2BD42AAD Accurately ripped (confidence 9) [3FC00F6A] (AR v2) Copy OK
Track 5
Filename D:\05 - Fragile.wav
Pre-gap length 0:00:01.26
Peak level 96.1 % Extraction speed 1.3 X Track quality 100.0 % Test CRC A7E68A6C Copy CRC A7E68A6C Accurately ripped (confidence 9) [93B16A66] (AR v2) Copy OK
Track 6
Filename D:\06 - The Resistance.wav
Pre-gap length 0:00:02.22
Peak level 99.9 % Extraction speed 1.4 X Track quality 100.0 % Test CRC B2B08C15 Copy CRC B2B08C15 Accurately ripped (confidence 9) [431E1A8E] (AR v2) Copy OK
Track 7
Filename D:\07 - Hurt.wav
Peak level 99.7 % Extraction speed 1.6 X Track quality 100.0 % Test CRC 624C3E7F Copy CRC 624C3E7F Accurately ripped (confidence 9) [3FACE6BC] (AR v2) Copy OK
Track 8
Filename D:\08 - Welcome to the Jungle.wav
Peak level 99.9 % Extraction speed 1.6 X Track quality 100.0 % Test CRC 30416FD2 Copy CRC 30416FD2 Accurately ripped (confidence 9) [43D5289D] (AR v2) Copy OK
Track 9
Filename D:\09 - Human Nature.wav
Pre-gap length 0:00:02.45
Peak level 99.9 % Extraction speed 1.3 X Track quality 99.9 % Test CRC 66797726 Copy CRC 66797726 Accurately ripped (confidence 9) [07E5A147] (AR v2) Copy OK
Track 10
Filename D:\10 - Viva La Vida.wav
Pre-gap length 0:00:01.10
Peak level 99.7 % Extraction speed 1.7 X Track quality 100.0 % Test CRC 116C3055 Copy CRC 116C3055 Accurately ripped (confidence 9) [8BDF083D] (AR v2) Copy OK
Track 11
Filename D:\11 - Smells Like Teen Spirit.wav
Peak level 98.6 % Extraction speed 1.7 X Track quality 100.0 % Test CRC CE313788 Copy CRC CE313788 Accurately ripped (confidence 9) [5E9BD793] (AR v2) Copy OK
Track 12
Filename D:\12 - With or Without You.wav
Pre-gap length 0:00:01.16
Peak level 99.6 % Extraction speed 1.9 X Track quality 100.0 % Test CRC 3B8C3274 Copy CRC 3B8C3274 Accurately ripped (confidence 9) [69498735] (AR v2) Copy OK
Track 13
Filename D:\13 - Fields of Gold.wav
Pre-gap length 0:00:02.37
Peak level 99.9 % Extraction speed 1.8 X Track quality 100.0 % Test CRC 19309638 Copy CRC 19309638 Accurately ripped (confidence 9) [331888B7] (AR v2) Copy OK
All tracks accurately ripped
No errors occurred
End of status report
---- CUETools DB Plugin V2.1.3
[CTDB TOCID: I2BKNTNYVHP1QngiTtaOR2_9jjs-] found, Submit result: already submitted[3c694ad9] (10/10) Accurately ripped
==== Log checksum 028A4FD27498F3C0AD9C4BAAE79D052DB152B3A2C46C59C13A131C74A53B373E ====

Содержание индексной карты (.CUE)

REM GENRE ClassicalREM DATE 2011REM DISCID 8A0AD50DREM COMMENT "ExactAudioCopy v1.0b3"PERFORMER "2Cellos"TITLE "2Cellos"FILE "01. Where the Streets Have No Name.flac" WAVE  TRACK 01 AUDIO    TITLE "Where the Streets Have No Name"    PERFORMER "2Cellos"    ISRC USSM11102892    INDEX 01 00:00:00  TRACK 02 AUDIO    TITLE "Misirlou (Theme from Pulp Fiction)"    PERFORMER "2Cellos"    ISRC USSM11102893    INDEX 00 04:02:11FILE "02. Misirlou (Theme from Pulp Fiction).flac" WAVE    INDEX 01 00:00:00  TRACK 03 AUDIO    TITLE "Use Somebody"    PERFORMER "2Cellos"    ISRC USSM11102894    INDEX 00 02:13:17FILE "03. Use Somebody.flac" WAVE    INDEX 01 00:00:00  TRACK 04 AUDIO    TITLE "Smooth Criminal"    PERFORMER "2Cellos"    ISRC USSM11102279    INDEX 00 03:27:29FILE "04. Smooth Criminal.flac" WAVE    INDEX 01 00:00:00  TRACK 05 AUDIO    TITLE "Fragile"    PERFORMER "2Cellos"    ISRC USSM11102895    INDEX 00 04:10:63FILE "05. Fragile.flac" WAVE    INDEX 01 00:00:00  TRACK 06 AUDIO    TITLE "The Resistance"    PERFORMER "2Cellos"    ISRC USSM11102896    INDEX 00 03:26:27FILE "06. The Resistance.flac" WAVE    INDEX 01 00:00:00FILE "07. Hurt.flac" WAVE  TRACK 07 AUDIO    TITLE "Hurt"    PERFORMER "2Cellos"    ISRC USSM11102897    INDEX 01 00:00:00FILE "08. Welcome to the Jungle.flac" WAVE  TRACK 08 AUDIO    TITLE "Welcome to the Jungle"    PERFORMER "2Cellos"    ISRC USSM11102872    INDEX 01 00:00:00  TRACK 09 AUDIO    TITLE "Human Nature"    PERFORMER "2Cellos"    ISRC USSM11102898    INDEX 00 03:09:07FILE "09. Human Nature.flac" WAVE    INDEX 01 00:00:00  TRACK 10 AUDIO    TITLE "Viva La Vida"    PERFORMER "2Cellos"    ISRC USSM11102899    INDEX 00 02:47:65FILE "10. Viva La Vida.flac" WAVE    INDEX 01 00:00:00FILE "11. Smells Like Teen Spirit.flac" WAVE  TRACK 11 AUDIO    TITLE "Smells Like Teen Spirit"    PERFORMER "2Cellos"    ISRC USSM11102900    INDEX 01 00:00:00  TRACK 12 AUDIO    TITLE "With or Without You"    PERFORMER "2Cellos"    ISRC USSM11102901    INDEX 00 02:50:72FILE "12. With or Without You.flac" WAVE    INDEX 01 00:00:00  TRACK 13 AUDIO    TITLE "Fields of Gold"    PERFORMER "2Cellos"    ISRC USSM11102978    INDEX 00 04:51:38FILE "13. Fields of Gold.flac" WAVE    INDEX 01 00:00:00

Лог проверки качества

CUE Corrector v.6.9.2 (build 488)------------------------------------------------------------------------2Cellos / 2Cellos - Japanese Edition
Folder: 2Cellos - 2Cellos - Japanese Edition (2011) [CD]audio files: 01. 2Cellos - Where the Streets Have No Name [04:04.46, FLAC, 44100Hz, Stereo, 16bit; 21,23 MB (22 263 107 bytes)] 02. 2Cellos - Misirlou (Theme from Pulp Fiction) [02:14.43, FLAC, 44100Hz, Stereo, 16bit; 13,14 MB (13 781 489 bytes)] 03. 2Cellos - Use Somebody [03:29.00, FLAC, 44100Hz, Stereo, 16bit; 20,62 MB (21 626 538 bytes)] 04. 2Cellos - Smooth Criminal [04:12.14, FLAC, 44100Hz, Stereo, 16bit; 22,11 MB (23 187 994 bytes)] 05. 2Cellos - Fragile [03:28.49, FLAC, 44100Hz, Stereo, 16bit; 14,75 MB (15 464 551 bytes)] 06. 2Cellos - The Resistance [03:49.65, FLAC, 44100Hz, Stereo, 16bit; 22,08 MB (23 151 844 bytes)] 07. 2Cellos - Hurt [04:30.05, FLAC, 44100Hz, Stereo, 16bit; 22,78 MB (23 883 011 bytes)] 08. 2Cellos - Welcome to the Jungle [03:11.52, FLAC, 44100Hz, Stereo, 16bit; 20,13 MB (21 112 608 bytes)] 09. 2Cellos - Human Nature [02:49.00, FLAC, 44100Hz, Stereo, 16bit; 11,92 MB (12 502 038 bytes)] 10. 2Cellos - Viva La Vida [03:42.40, FLAC, 44100Hz, Stereo, 16bit; 19,32 MB (20 261 556 bytes)] 11. 2Cellos - Smells Like Teen Spirit [02:52.13, FLAC, 44100Hz, Stereo, 16bit; 15,47 MB (16 226 232 bytes)] 12. 2Cellos - With or Without You [04:54.00, FLAC, 44100Hz, Stereo, 16bit; 23,28 MB (24 408 699 bytes)] 13. 2Cellos - Fields of Gold [02:54.62, FLAC, 44100Hz, Stereo, 16bit; 13,15 MB (13 788 573 bytes)]
Accuracy: -m8
File 01. 2Cellos - Where the Streets Have No Name - 99% CDDA [04:04.46]File 02. 2Cellos - Misirlou (Theme from Pulp Fiction) - 100% CDDA [02:14.43]File 03. 2Cellos - Use Somebody - 99% CDDA [03:29.00]File 04. 2Cellos - Smooth Criminal - 100% CDDA [04:12.14]File 05. 2Cellos - Fragile - 100% CDDA [03:28.49]File 06. 2Cellos - The Resistance - 100% CDDA [03:49.65]File 07. 2Cellos - Hurt - 100% CDDA [04:30.05]File 08. 2Cellos - Welcome to the Jungle - 100% CDDA [03:11.52]File 09. 2Cellos - Human Nature - 99% CDDA [02:49.00]File 10. 2Cellos - Viva La Vida - 100% CDDA [03:42.40]File 11. 2Cellos - Smells Like Teen Spirit - 100% CDDA [02:52.13]File 12. 2Cellos - With or Without You - 100% CDDA [04:54.00]File 13. 2Cellos - Fields of Gold - 100% CDDA [02:54.62]----- Summary: -----These tracks looks like CDDA with probability 100%.------------------------------------------------------------------------
ANALYZER: auCDtect: CD records authenticity detector, version 0.8.2 Copyright (c) 2004 Oleg Berngardt. All rights reserved. Copyright (c) 2004 Alexander Djourik. All rights reserved.
Time elapsed: 09.8 sLog created at February 04, 2015 12:02:05
=== AA9856B2CFC5F67F6DE451CCB9500A8A1514A2080D4ADE6770A3ECE543FD151F ===

Обновление 24.10.2018

Отредактировал сие и название треков

If you like the topic, please click share to help develop our site.

To download the file disable ad blocking, and reload the page.

disable adblock How to disable ad blocking?

Download by magnet link 243 MB Download Torrent

Login using:

Similar topics



   
Current time is: 25-Mar 19:06 :: All times are UTC + 3