Тёмная лига справедливости / Justice League Dark
«Every super hero has a dark side» -Страна: США.
Жанр: Мультфильм, фантастика, боевик, приключения.
Продолжительность: 01:15:51
Год выпуска: 2017.
Перевод: Профессиональный (дублированный) SDI Media;
Любительский (многоголосый закадровый) Saint Sound;
Любительский (двухголосый закадровый) ZM-Show;
Любительский (многоголосый закадровый) Shadow Dub;
Любительский (многоголосый закадровый) AniLibria;
Любительский (многоголосый закадровый) GoASound;
Любительский (многоголосый закадровый) Flarrow Films;
Любительский (двухголосый закадровый) Black Show.
Русские субтитры: Есть.
Режиссёр: Джей Олива / Jay Oliva.
Роли озвучивали: Мэтт Райан, Камилла Ладдингтон, Джейсон О’Мара, Джейби Бланк, Рэй Чейз, Энрико Колантони, Роджер Р. Кросс, Джереми Дэвис, Розарио Доусон, Брайан Т. Делани.--Описание: О команде нетипичных и не внушающих доверия супергероев, живых воплощений всех верований оккультизма. Темные маги, монстры, демоны и призраки объединятся под началом знаменитого детектива-медиума Джона Константина, чтобы потягаться со столь же могущественными силами.--

Роли озвучивали :

GoASound

Закадровые голоса: Wolverrine - Константин, и др., Сергей Павлов - Бэтмен, и др., Reina - Затанна, и др., Ланселап - Джоннибой, и др.
Релиз: -Благодарности:
Спасибо dartrody и ZM-SHOW за любезно предоставленные чистые голоса;
Спасибо Saint Sound за любезно предоставленные чистые голоса.-Качество: UHD BDRemux 2160p
Формат: MKV
Видео кодек: AVC
Аудио кодек: DTS MA, AC3
Видео: MPEG-H HEVC Video / 3840x2160 / 59.9 Mb/s / 23.976 fps / 16:9 / Main 10 Profile 5.1 High / 4:2:0 / 10 bits / HDR / BT.2020 /
Аудио 1: AC3, 3/2 (L,C,R,SL,SR)+LFE ch, 448 kbps............................................................................................... SDI Media
Аудио 2: DTS-HD Master Audio / 5.1 / 48 kHz / 2 329 kbps / 16-bit (DTS Core: 5.1 / 48 kHz / 1509 kbps / 16-bit)........ Saint Sound
Аудио 3: DTS-HD Master Audio / 5.1 / 48 kHz / 2 331 kbps / 16-bit (DTS Core: 5.1 / 48 kHz / 1509 kbps / 16-bit)........ ZM-Show
Аудио 4: DTS-HD Master Audio / 5.1 / 48 kHz / 2 317 kbps / 16-bit (DTS Core: 5.1 / 48 kHz / 1509 kbps / 16-bit)........ Shadow Dub
Аудио 5: AC3, 3/2 (L,C,R,SL,SR)+LFE ch, 640 kbps............................................................................................... AniLibria
Аудио 6: AC3, 3/2 (L,C,R,SL,SR)+LFE ch, 640 kbps............................................................................................... GoASound
Аудио 7: AC3, 3/2 (L,C,R,SL,SR)+LFE ch, 640 kbps............................................................................................... Flarrow Films
Аудио 8: AC3, 3/2 (L,C,R,SL,SR)+LFE ch, 640 kbps............................................................................................... Black Show
Аудио 9: DTS-HD Master Audio / 5.1 / 48 kHz / 2 617 kbps / 24-bit (DTS Core: 5.1 / 48 kHz / 1509 kbps / 24-bit)....... English
Субтитры: Русские, English, English SDH.
Навигация по главам: 8 глав (не именных)

MInfo

GeneralUnique ID                   : 79892954166465935635499882016417761438 (0x3C1AD2C2500841D7B0921836529BC89E)Complete name               : D:\Torrents\Justice League Dark (2017) UHD BDRemux 2160p Bobropandavar.mkvFormat                      : MatroskaFormat version              : Version 4 / Version 2File size                   : 38.1 GiBDuration                    : 1 h 15 minOverall bit rate            : 71.9 Mb/sEncoded date                : UTC 2018-10-23 06:13:38Writing application         : mkvmerge v28.0.0 ('Voice In My Head') 64-bitWriting library             : libebml v1.3.6 + libmatroska v1.4.9Cover                       : YesAttachments                 : cover.jpg
VideoID : 1Format : HEVCFormat/Info : High Efficiency Video CodingCommercial name : HDR10Format profile : Main [email protected]@HighCodec ID : V_MPEGH/ISO/HEVCDuration : 1 h 15 minBit rate : 59.9 Mb/sWidth : 3 840 pixelsHeight : 2 160 pixelsDisplay aspect ratio : 16:9Frame rate mode : ConstantFrame rate : 23.976 (24000/1001) FPSColor space : YUVChroma subsampling : 4:2:0 (Type 2)Bit depth : 10 bitsBits/(Pixel*Frame) : 0.301Stream size : 31.8 GiB (83%)Writing library : ATEME Titan File 3.8.16 (4.8.16.0)Language : EnglishDefault : YesForced : NoColor range : LimitedColor primaries : BT.2020Transfer characteristics : PQMatrix coefficients : BT.2020 non-constantMastering display color pri : Display P3Mastering display luminance : min: 0.0050 cd/m2, max: 4000 cd/m2Maximum Content Light Level : 1150 cd/m2Maximum Frame-Average Light : 478 cd/m2
Audio #1ID : 2Format : AC-3Format/Info : Audio Coding 3Commercial name : Dolby DigitalCodec ID : A_AC3Duration : 1 h 15 minBit rate mode : ConstantBit rate : 448 kb/sChannel(s) : 6 channelsChannel positions : Front: L C R, Side: L R, LFESampling rate : 48.0 kHzFrame rate : 31.250 FPS (1536 SPF)Bit depth : 16 bitsCompression mode : LossyStream size : 243 MiB (1%)Title : DUB - SDI MediaLanguage : RussianService kind : Complete MainDefault : YesForced : No
Audio #2ID : 3Format : DTSFormat/Info : Digital Theater SystemsFormat profile : MA / CoreCodec ID : A_DTSDuration : 1 h 15 minBit rate mode : Variable / ConstantBit rate : 2 329 kb/s / 1 509 kb/sChannel(s) : 6 channelsChannel positions : Front: L C R, Side: L R, LFESampling rate : 48.0 kHzFrame rate : 93.750 FPS (512 SPF)Bit depth : 16 bitsCompression mode : Lossless / LossyStream size : 1.23 GiB (3%)Title : MVO - Saint SoundLanguage : RussianDefault : NoForced : No
Audio #3ID : 4Format : DTSFormat/Info : Digital Theater SystemsFormat profile : MA / CoreCodec ID : A_DTSDuration : 1 h 15 minBit rate mode : Variable / ConstantBit rate : 2 331 kb/s / 1 509 kb/sChannel(s) : 6 channelsChannel positions : Front: L C R, Side: L R, LFESampling rate : 48.0 kHzFrame rate : 93.750 FPS (512 SPF)Bit depth : 16 bitsCompression mode : Lossless / LossyStream size : 1.23 GiB (3%)Title : DVO - ZM-ShowLanguage : RussianDefault : NoForced : No
Audio #4ID : 5Format : DTSFormat/Info : Digital Theater SystemsFormat profile : MA / CoreCodec ID : A_DTSDuration : 1 h 15 minBit rate mode : Variable / ConstantBit rate : 2 317 kb/s / 1 509 kb/sChannel(s) : 6 channelsChannel positions : Front: L C R, Side: L R, LFESampling rate : 48.0 kHzFrame rate : 93.750 FPS (512 SPF)Bit depth : 16 bitsCompression mode : Lossless / LossyStream size : 1.23 GiB (3%)Title : MVO - Shadow DubLanguage : RussianDefault : NoForced : No
Audio #5ID : 6Format : AC-3Format/Info : Audio Coding 3Commercial name : Dolby DigitalCodec ID : A_AC3Duration : 1 h 15 minBit rate mode : ConstantBit rate : 640 kb/sChannel(s) : 6 channelsChannel positions : Front: L C R, Side: L R, LFESampling rate : 48.0 kHzFrame rate : 31.250 FPS (1536 SPF)Bit depth : 16 bitsCompression mode : LossyStream size : 347 MiB (1%)Title : MVO - AniLibriaLanguage : RussianService kind : Complete MainDefault : NoForced : No
Audio #6ID : 7Format : AC-3Format/Info : Audio Coding 3Commercial name : Dolby DigitalCodec ID : A_AC3Duration : 1 h 15 minBit rate mode : ConstantBit rate : 640 kb/sChannel(s) : 6 channelsChannel positions : Front: L C R, Side: L R, LFESampling rate : 48.0 kHzFrame rate : 31.250 FPS (1536 SPF)Bit depth : 16 bitsCompression mode : LossyStream size : 347 MiB (1%)Title : MVO - GoASoundLanguage : RussianService kind : Complete MainDefault : NoForced : No
Audio #7ID : 8Format : AC-3Format/Info : Audio Coding 3Commercial name : Dolby DigitalCodec ID : A_AC3Duration : 1 h 15 minBit rate mode : ConstantBit rate : 640 kb/sChannel(s) : 6 channelsChannel positions : Front: L C R, Side: L R, LFESampling rate : 48.0 kHzFrame rate : 31.250 FPS (1536 SPF)Bit depth : 16 bitsCompression mode : LossyStream size : 347 MiB (1%)Title : DVO - Black ShowLanguage : RussianService kind : Complete MainDefault : NoForced : No
Audio #8ID : 9Format : DTSFormat/Info : Digital Theater SystemsFormat profile : MA / CoreCodec ID : A_DTSDuration : 1 h 15 minBit rate mode : Variable / ConstantBit rate : 2 617 kb/s / 1 509 kb/sChannel(s) : 6 channelsChannel positions : Front: L C R, Side: L R, LFESampling rate : 48.0 kHzFrame rate : 93.750 FPS (512 SPF)Bit depth : 24 bitsCompression mode : Lossless / LossyStream size : 1.39 GiB (4%)Title : Original - EnglishLanguage : EnglishDefault : NoForced : No
Text #1ID : 10Format : UTF-8Codec ID : S_TEXT/UTF8Codec ID/Info : UTF-8 Plain TextDuration : 1 h 12 minBit rate : 83 b/sCount of elements : 667Stream size : 44.4 KiB (0%)Title : RussianLanguage : RussianDefault : NoForced : No
Text #2ID : 11Format : UTF-8Codec ID : S_TEXT/UTF8Codec ID/Info : UTF-8 Plain TextDuration : 1 h 15 minBit rate : 47 b/sCount of elements : 733Stream size : 26.1 KiB (0%)Title : EnglishLanguage : EnglishDefault : NoForced : No
Text #3ID : 12Format : UTF-8Codec ID : S_TEXT/UTF8Codec ID/Info : UTF-8 Plain TextDuration : 1 h 15 minBit rate : 52 b/sCount of elements : 919Stream size : 28.9 KiB (0%)Title : English SDHLanguage : EnglishDefault : NoForced : No
Menu00:00:00.000 : :Глава 0100:12:59.069 : :Глава 0200:22:23.925 : :Глава 0300:33:16.953 : :Глава 0400:42:14.448 : :Глава 0500:54:19.965 : :Глава 0601:04:17.770 : :Глава 0701:12:34.141 : :Глава 08

Скриншоты


-МОИ РАЗДАЧИ-НЕ ЗАБЫВАЕМ БЛАГОДАРИТЬ НАЖАТИЕМ КНОПОЧКИ "СПАСИБО"

If you like the topic, please click share to help develop our site.

To download the file disable ad blocking, and reload the page.

disable adblock How to disable ad blocking?

Download by magnet link 38.44 GB Download Torrent

Login using:

Similar topics



   
Current time is: 20-May 00:32 :: All times are UTC + 3