Roxy Coss - The Future Is Female- Жанр: Contemporary Jazz, Post-Bop
Носитель: CD
Год издания: 2018
Издатель (лейбл): Posi-Tone
Номер по каталогу: PR8181
Аудиокодек: FLAC (*.flac)
Тип рипа: tracks+.cue
Битрейт аудио: lossless
Продолжительность: 00:50:23
Источник (релизер): www
Наличие сканов в содержимом раздачи: нет--Roxy Coss - sax & bass clarinet
Alex Wintz - guitar
Miki Yamanaka - piano
Rick Rosato - bass
Jimmy Macbride - drums
Lucas Pino - bass clarinet on 10
--01. Nevertheless, She Persisted [06:15]
02. Little Did She Know [04:09]
03. She Needed A Hero, So That's What She Became [06:07]
04. Females Are Strong As Hell [03:21]
05. Mr. President [05:57]
06. #MeToo [04:02]
07. Choices [06:37]
08. Feminist AF [04:50]
09. Nasty Women Grab Back [03:21]
10. Ode To A Generation [05:40]--

Лог создания рипа

Exact Audio Copy V1.3 from 2. September 2016
EAC extraction logfile from 23. October 2018, 17:56
Roxy Coss / The Future Is Female
Used drive : PLDS DVD-RW DU8A6SH Adapter: 1 ID: 0
Read mode : SecureUtilize accurate stream : YesDefeat audio cache : YesMake use of C2 pointers : No
Read offset correction : 6Overread into Lead-In and Lead-Out : NoFill up missing offset samples with silence : YesDelete leading and trailing silent blocks : NoNull samples used in CRC calculations : YesUsed interface : Native Win32 interface for Win NT & 2000Gap handling : Appended to previous track
Used output format : User Defined EncoderSelected bitrate : 1024 kBit/sQuality : HighAdd ID3 tag : NoCommand line compressor : C:\Program Files (x86)\FLAC Frontend\tools\flac.exeAdditional command line options : -8 -V -T "ARTIST=%artist%" -T "TITLE=%title%" -T "ALBUM=%albumtitle%" -T "DATE=%year%" -T "TRACKNUMBER=%tracknr%" -T "GENRE=%genre%" -T "PERFORMER=%albuminterpret%" -T "COMPOSER=%composer%" %haslyrics%--tag-from-file=LYRICS="%lyricsfile%"%haslyrics% -T "ALBUMARTIST=%albumartist%" -T "DISCNUMBER=%cdnumber%" -T "TOTALDISCS=%totalcds%" -T "TOTALTRACKS=%numtracks%" -T "COMMENT=%comment%" %source% -o %dest%
TOC of the extracted CD
Track | Start | Length | Start sector | End sector --------------------------------------------------------- 1 | 0:00.00 | 6:15.30 | 0 | 28154 2 | 6:15.30 | 4:09.68 | 28155 | 46897 3 | 10:25.23 | 6:07.30 | 46898 | 74452 4 | 16:32.53 | 3:21.06 | 74453 | 89533 5 | 19:53.59 | 5:57.59 | 89534 | 116367 6 | 25:51.43 | 4:02.70 | 116368 | 134587 7 | 29:54.38 | 6:37.42 | 134588 | 164404 8 | 36:32.05 | 4:50.19 | 164405 | 186173 9 | 41:22.24 | 3:21.45 | 186174 | 201293 10 | 44:43.69 | 5:40.03 | 201294 | 226796
Track 1
Filename C:\Users\dwm\Desktop\Torrents\Roxy Coss - The Future is Female (2018) - CD FLAC\01 - Nevertheless, She Persisted.wav
Pre-gap length 0:00:02.00
Peak level 95.9 % Extraction speed 2.2 X Track quality 100.0 % Test CRC E016FEE6 Copy CRC E016FEE6 Accurately ripped (confidence 1) [44FC6785] (AR v2) Copy OK
Track 2
Filename C:\Users\dwm\Desktop\Torrents\Roxy Coss - The Future is Female (2018) - CD FLAC\02 - Little Did She Know.wav
Peak level 90.8 % Extraction speed 2.4 X Track quality 100.0 % Test CRC 31F93B7B Copy CRC 31F93B7B Accurately ripped (confidence 1) [7D1C6001] (AR v2) Copy OK
Track 3
Filename C:\Users\dwm\Desktop\Torrents\Roxy Coss - The Future is Female (2018) - CD FLAC\03 - She Needed A Hero, So That's What She Became.wav
Peak level 96.1 % Extraction speed 2.8 X Track quality 100.0 % Test CRC 7287BEA7 Copy CRC 7287BEA7 Accurately ripped (confidence 1) [425F07E2] (AR v2) Copy OK
Track 4
Filename C:\Users\dwm\Desktop\Torrents\Roxy Coss - The Future is Female (2018) - CD FLAC\04 - Females Are Strong As Hell.wav
Peak level 90.3 % Extraction speed 2.7 X Track quality 100.0 % Test CRC 8760599B Copy CRC 8760599B Accurately ripped (confidence 1) [ADBD3ACC] (AR v2) Copy OK
Track 5
Filename C:\Users\dwm\Desktop\Torrents\Roxy Coss - The Future is Female (2018) - CD FLAC\05 - Mr. President.wav
Peak level 91.8 % Extraction speed 3.2 X Track quality 100.0 % Test CRC 77CDB2CC Copy CRC 77CDB2CC Accurately ripped (confidence 1) [D15F823B] (AR v2) Copy OK
Track 6
Filename C:\Users\dwm\Desktop\Torrents\Roxy Coss - The Future is Female (2018) - CD FLAC\06 - #MeToo.wav
Peak level 89.8 % Extraction speed 3.2 X Track quality 100.0 % Test CRC 21CBF657 Copy CRC 21CBF657 Accurately ripped (confidence 1) [98277F1E] (AR v2) Copy OK
Track 7
Filename C:\Users\dwm\Desktop\Torrents\Roxy Coss - The Future is Female (2018) - CD FLAC\07 - Choices.wav
Peak level 89.4 % Extraction speed 3.6 X Track quality 100.0 % Test CRC 5A29672D Copy CRC 5A29672D Accurately ripped (confidence 1) [2C1F238A] (AR v2) Copy OK
Track 8
Filename C:\Users\dwm\Desktop\Torrents\Roxy Coss - The Future is Female (2018) - CD FLAC\08 - Feminist AF.wav
Peak level 90.0 % Extraction speed 3.7 X Track quality 100.0 % Test CRC 3CF17DA3 Copy CRC 3CF17DA3 Accurately ripped (confidence 1) [1392E809] (AR v2) Copy OK
Track 9
Filename C:\Users\dwm\Desktop\Torrents\Roxy Coss - The Future is Female (2018) - CD FLAC\09 - Nasty Women Grab Back.wav
Peak level 91.8 % Extraction speed 3.6 X Track quality 100.0 % Test CRC D65DC293 Copy CRC D65DC293 Accurately ripped (confidence 1) [558AB72F] (AR v2) Copy OK
Track 10
Filename C:\Users\dwm\Desktop\Torrents\Roxy Coss - The Future is Female (2018) - CD FLAC\10 - Ode To A Generation.wav
Peak level 91.8 % Extraction speed 4.0 X Track quality 100.0 % Test CRC 3C552738 Copy CRC 3C552738 Accurately ripped (confidence 1) [0A9A35C2] (AR v2) Copy OK
All tracks accurately ripped
No errors occurred
End of status report
---- CUETools DB Plugin V2.1.6
[CTDB TOCID: kanoptMMDYXiegW5f.qxcagnLsE-] foundSubmit result: kanoptMMDYXiegW5f.qxcagnLsE- has been confirmedTrack | CTDB Status 1 | (3/3) Accurately ripped 2 | (3/3) Accurately ripped 3 | (3/3) Accurately ripped 4 | (3/3) Accurately ripped 5 | (3/3) Accurately ripped 6 | (3/3) Accurately ripped 7 | (3/3) Accurately ripped 8 | (3/3) Accurately ripped 9 | (3/3) Accurately ripped 10 | (3/3) Accurately ripped
==== Log checksum 7191CAAB11F320BB8103463277726F653292779B7AEC06CD396452D0D4803E5D ====

Содержание индексной карты (.CUE)

REM GENRE JazzREM DATE 2018REM DISCID A40BCF0AREM COMMENT "ExactAudioCopy v1.3"PERFORMER "Roxy Coss"TITLE "The Future Is Female"FILE "01 - Nevertheless, She Persisted.wav" WAVE  TRACK 01 AUDIO    TITLE "Nevertheless, She Persisted"    PERFORMER "Roxy Coss"    INDEX 01 00:00:00FILE "02 - Little Did She Know.wav" WAVE  TRACK 02 AUDIO    TITLE" Little Did She Know"    PERFORMER "Roxy Coss"    INDEX 01 00:00:00FILE "03 - She Needed A Hero, So That's What She Became.wav" WAVE  TRACK 03 AUDIO    TITLE"he Needed A Hero, So That's What She Became"    PERFORMER "Roxy Coss"    INDEX 01 00:00:00FILE "04 - Females Are Strong As Hell.wav" WAVE  TRACK 04 AUDIO    TITLE " Females Are Strong As Hell"    PERFORMER "Roxy Coss"    INDEX 01 00:00:00FILE "05 - Mr. President.wav" WAVE  TRACK 05 AUDIO    TITLE "Mr. President"    PERFORMER "Roxy Coss"    INDEX 01 00:00:00FILE "06 - #MeToo.wav" WAVE  TRACK 06 AUDIO    TITLE " #MeToo"    PERFORMER "Roxy Coss"    INDEX 01 00:00:00FILE "07 - Choices.wav" WAVE  TRACK 07 AUDIO    TITLE "Choices"    PERFORMER "Roxy Coss"    INDEX 01 00:00:00FILE "08 - Feminist AF.wav" WAVE  TRACK 08 AUDIO    TITLE "Feminist AF"    PERFORMER "Roxy Coss"    INDEX 01 00:00:00FILE "09 - Nasty Women Grab Back.wav" WAVE  TRACK 09 AUDIO    TITLE "Nasty Women Grab Back"    PERFORMER "Roxy Coss"    INDEX 01 00:00:00FILE "10 - Ode To A Generation.wav" WAVE  TRACK 10 AUDIO    TITLE "Ode To A Generation"    PERFORMER "Roxy Coss"    INDEX 01 00:00:00

If you like the topic, please click share to help develop our site.

To download the file disable ad blocking, and reload the page.

disable adblock How to disable ad blocking?

Download by magnet link 319 MB Download Torrent

Login using:

Similar topics



   
Current time is: 20-May 15:04 :: All times are UTC + 3