Adam Rabin / The Badger Flies At Dawn
Жанр: Progressive Rock
Носитель: WEB
Год издания: 2018
Страна исполнителя (группы): USA
Аудиокодек: FLAC (*.flac)
Тип рипа: tracks
Битрейт аудио: lossless
Продолжительность: 49:01
Источник (релизер): Bandcamp
Наличие сканов в содержимом раздачи: pdf lyric booklet

01. Mistakes [00:06:13]
02. Trains That Never Come [00:05:59]
03. One of a Kind [00:05:45]
04. Sending Me Feathers [00:04:16]
05. Bowl of Toes [00:04:28]
06. A Little Too Long [00:04:27]
07. The Badger Flies at Dawn [00:07:48]
08. Omega Blues [00:02:24]
09. Improvised Weapons [Bonus] [00:07:36]
Releases October 26, 2018

Состав

Adam Rabin - Written, Performed, All Instruments and Vocals
Greg Skillman - lyrics for "Mistakes," "Trains That Never Come," and "Sending Me Feathers."
Bob Gagnon - Electric Guitar on "One of a Kind"
Sam Kurnit - Voice on "Improvised Weapons"

Лог проверки качества

-----------------------
DON'T MODIFY THIS FILE
-----------------------
PERFORMER: auCDtect Task Manager, ver. 1.6.0 RC1 build 1.6.0.1Copyright (c) 2008-2010 y-soft. All rights reservedhttp://y-soft.org
ANALYZER: auCDtect: CD records authenticity detector, version 0.8.2Copyright (c) 2004 Oleg Berngardt. All rights reserved.Copyright (c) 2004 Alexander Djourik. All rights reserved.
FILE: Adam Rabin - The Badger Flies At Dawn - 09 Improvised Weapons -Bonus-.flac Size: 45250187 Hash: 7DEF0E79323534D19F2746F2C6623121 Accuracy: -m0 Conclusion: CDDA 100% Signature: 05B7777CFF2B272B0F70FA8C72D9B35BD2109C2FFILE: Adam Rabin - The Badger Flies At Dawn - 08 Omega Blues.flac Size: 10644303 Hash: 080CFC4729B3970360CA10DA51A6E1ED Accuracy: -m0 Conclusion: CDDA 99% Signature: 64068A55DA1DA4C730D45D15F708630E127D0A9BFILE: Adam Rabin - The Badger Flies At Dawn - 07 The Badger Flies at Dawn.flac Size: 47777618 Hash: 132CACF8966FA8A612985D8793D7430D Accuracy: -m0 Conclusion: CDDA 100% Signature: E8E1C3F8A2428ECC32E3CEF18396A0658F7A2A70FILE: Adam Rabin - The Badger Flies At Dawn - 06 A Little Too Long.flac Size: 30016547 Hash: 7D952B72C9157919F3B3D8B856E0C17E Accuracy: -m0 Conclusion: CDDA 100% Signature: 750A30CC8C7E464B6E6CC0C2F4FE595797457DDFFILE: Adam Rabin - The Badger Flies At Dawn - 05 Bowl of Toes.flac Size: 28180589 Hash: A122EF1AAE76980444E9DB0EDE9F0FBB Accuracy: -m0 Conclusion: CDDA 100% Signature: 68362EA8E43982CAEC52105FD85818549B93353FFILE: Adam Rabin - The Badger Flies At Dawn - 04 Sending Me Feathers.flac Size: 19741207 Hash: 9768836E6908A1F1D85B43BA9BE5A565 Accuracy: -m0 Conclusion: CDDA 100% Signature: 3EB9A328FD4B17B920754406679319A1286534A0FILE: Adam Rabin - The Badger Flies At Dawn - 03 One of a Kind.flac Size: 40155841 Hash: 3A25B29F406CC6C5595EDF555621F37C Accuracy: -m0 Conclusion: CDDA 100% Signature: 1BA6FECF522178523AE8D31DEEABA320B11D46BEFILE: Adam Rabin - The Badger Flies At Dawn - 02 Trains That Never Come.flac Size: 36965226 Hash: 32F69381AC1D78617DCFD43214A58163 Accuracy: -m0 Conclusion: CDDA 100% Signature: A34F35268FD1C5E3CD1FA38EB6B17242FE329432FILE: Adam Rabin - The Badger Flies At Dawn - 01 Mistakes.flac Size: 38090269 Hash: 2050A329C79F957F8ACF6FA6F13FA428 Accuracy: -m0 Conclusion: CDDA 99% Signature: 22F9192AF7877FCDF3E8BFCE548A648E58859E37

DRM log

foobar2000 1.3.12 / Dynamic Range Meter 1.1.1log date: 2018-10-24 07:08:13
--------------------------------------------------------------------------------Analyzed: Adam Rabin / The Badger Flies At Dawn--------------------------------------------------------------------------------
DR Peak RMS Duration Track--------------------------------------------------------------------------------DR10 -0.30 dB -13.35 dB 6:14 01-MistakesDR10 -0.31 dB -12.99 dB 6:00 02-Trains That Never ComeDR9 -0.30 dB -11.08 dB 5:46 03-One of a KindDR11 -0.32 dB -15.75 dB 4:16 04-Sending Me FeathersDR9 -1.33 dB -14.16 dB 4:29 05-Bowl of ToesDR9 -0.31 dB -12.67 dB 4:28 06-A Little Too LongDR8 -0.30 dB -12.00 dB 7:49 07-The Badger Flies at DawnDR12 -3.49 dB -19.35 dB 2:25 08-Omega BluesDR10 -0.30 dB -14.02 dB 7:36 09-Improvised Weapons [Bonus]--------------------------------------------------------------------------------
Number of tracks: 9Official DR value: DR10
Samplerate: 44100 HzChannels: 2Bits per sample: 16Bitrate: 790 kbpsCodec: FLAC================================================================================

If you like the topic, please click share to help develop our site.

To download the file disable ad blocking, and reload the page.

disable adblock How to disable ad blocking?

Download by magnet link 293 MB Download Torrent

Login using:

Similar topics



   
Current time is: 20-May 13:25 :: All times are UTC + 3