Информация о фильме
Название: Зависимость
Оригинальное название: The Addiction
Год выхода: 1995
Жанр: ужасы, драма
Режиссер: Абель Феррара
В ролях: Лили Тейлор, Кристофер Уокен, Аннабелла Скиорра, Иди Фалько, Пол Кэлдерон, Фредро Старр, Кэтрин Эрбе, Майкл Империоли, Джамал Симмонс, Роберт В. Кастл, Майкл А. Фелла, Луис Кац и др.
Описание: Студентка философского факультета подвергается нападению вампирши прямо на улице. Разумеется, сразу после этого в её организме и сознании начинают происходить необратимые перемены.
Но что интересно: интеллектуальный потенциал девушки только растет, новые способности позволяют ей защитить диссертацию. Однако вечеринка по поводу защиты превращается в кровавую оргию.

Страна: США, Аргентина
Продолжительность: 01:22:22
Перевод: Профессиональный (двухголосый закадровый)
Субтитры: русские, английские SDH
Оригинальная аудиодорожка: английский
Файл
Качество: BDRemux 1080р
Видео: MPEG-4 AVC / 1920x1080 / 16:9 / 23.976 fps / 35948 kbps / [email protected]
Аудио 1: Rus: AC3 / 48.0 KHz / 5.1 / 384 kbps / двухголосый
Аудио 2: Eng: DTS-HD MA / 48.0 KHz / 5.1 / 3610 kbps / 24 bit (DTS Core 48.0 KHz / 5.1 / 768 kbps / 24 bit)
Аудио 3: Eng: FLAC / 48.0 KHz / 2.0 / 1239 kbps / 24 bit
Аудио 4: Eng: AC3 / 48.0 KHz / 2.0 / 192 kbps / Commentary

Скриншоты

MediaInfo

Общее
Уникальный идентификатор : 281339896681478883492514775102933967448 (0xD3A817D9228F3887D6BBFC64E9A82258)
Полное имя : The.Addiction.1995.BDRemux.1080p.mkv
Формат : Matroska
Версия формата : Version 4 / Version 2
Размер файла : 23,8 Гбайт
Продолжительность : 1 ч. 22 м.
Режим общего битрейта : Переменный
Общий поток : 41,4 Мбит/сек
Название фильма : The.Addiction.1995.BDRemux.1080p-porvaliparus
Дата кодирования : UTC 2018-10-24 01:21:59
Программа кодирования : mkvmerge v28.0.0 ('Voice In My Head') 64-bit
Библиотека кодирования : libebml v1.3.6 + libmatroska v1.4.9
Видео
Идентификатор : 1
Формат : AVC
Формат/Информация : Advanced Video Codec
Профиль формата : [email protected]
Настройки формата : CABAC / 3 Ref Frames
Параметр CABAC формата : Да
Параметр RefFrames формата : 3 кадра
Идентификатор кодека : V_MPEG4/ISO/AVC
Продолжительность : 1 ч. 22 м.
Вид битрейта : Переменный
Битрейт : 35,9 Мбит/сек
Максимальный битрейт : 40,0 Мбит/сек
Ширина : 1920 пикселей
Высота : 1080 пикселей
Соотношение сторон : 16:9
Режим частоты кадров : Постоянный
Частота кадров : 23,976 (24000/1001) кадра/сек
Цветовое пространство : YUV
Субдискретизация насыщенности : 4:2:0
Битовая глубина : 8 бит
Тип развёртки : Прогрессивная
Бит/(Пиксели*Кадры) : 0.723
Размер потока : 20,7 Гбайт (87%)
Заголовок : The.Addiction.1995.BDRemux.1080p
Default : Да
Forced : Нет
Цветовой диапазон : Limited
Основные цвета : BT.709
Характеристики трансфера : BT.709
Коэффициенты матрицы : BT.709
Аудио #1
Идентификатор : 2
Формат : AC-3
Формат/Информация : Audio Coding 3
Идентификатор кодека : A_AC3
Продолжительность : 1 ч. 22 м.
Вид битрейта : Постоянный
Битрейт : 384 Кбит/сек
Каналы : 6 каналов
Расположение каналов : Front: L C R, Side: L R, LFE
Частота : 48,0 КГц
Частота кадров : 31,250 кадров/сек (1536 SPF)
Битовая глубина : 16 бит
Метод сжатия : С потерями
Размер потока : 226 Мбайт (1%)
Заголовок : DVO
Язык : Russian
ServiceKind : Complete Main
Default : Да
Forced : Нет
Аудио #2
Идентификатор : 3
Формат : DTS
Формат/Информация : Digital Theater Systems
Профиль формата : MA / Core
Идентификатор кодека : A_DTS
Продолжительность : 1 ч. 22 м.
Вид битрейта : Переменный / Постоянный
Битрейт : 3610 Кбит/сек / 768 Кбит/сек
Каналы : 6 каналов
Расположение каналов : Front: L C R, Side: L R, LFE
Частота : 48,0 КГц
Частота кадров : 93,750 кадра/сек (512 SPF)
Битовая глубина : 24 бит
Метод сжатия : Без потерь / Lossy
Размер потока : 2,08 Гбайт (9%)
Язык : English
Default : Нет
Forced : Нет
Аудио #3
Идентификатор : 4
Формат : FLAC
Формат/Информация : Free Lossless Audio Codec
Идентификатор кодека : A_FLAC
Продолжительность : 1 ч. 22 м.
Вид битрейта : Переменный
Битрейт : 1239 Кбит/сек
Каналы : 2 канала
Расположение каналов : Front: L R
Частота : 48,0 КГц
Частота кадров : 11,719 кадров/сек (4096 SPF)
Битовая глубина : 24 бит
Размер потока : 730 Мбайт (3%)
Библиотека кодирования : libFLAC 1.2.1 (UTC 2007-09-17)
Язык : English
Default : Нет
Forced : Нет
Аудио #4
Идентификатор : 5
Формат : AC-3
Формат/Информация : Audio Coding 3
Идентификатор кодека : A_AC3
Продолжительность : 1 ч. 22 м.
Вид битрейта : Постоянный
Битрейт : 192 Кбит/сек
Каналы : 2 канала
Расположение каналов : Front: L R
Частота : 48,0 КГц
Частота кадров : 31,250 кадров/сек (1536 SPF)
Битовая глубина : 16 бит
Метод сжатия : С потерями
Размер потока : 113 Мбайт (0%)
Заголовок : Commentary
Язык : English
ServiceKind : Complete Main
Default : Нет
Forced : Нет
Текст #1
Идентификатор : 6
Формат : UTF-8
Идентификатор кодека : S_TEXT/UTF8
Идентификатор кодека/Информация : UTF-8 Plain Text
Продолжительность : 1 ч. 19 м.
Битрейт : 51 бит/сек
ElementCount : 482
Размер потока : 29,7 Кбайт (0%)
Язык : Russian
Default : Нет
Forced : Нет
Текст #2
Идентификатор : 7
Формат : UTF-8
Идентификатор кодека : S_TEXT/UTF8
Идентификатор кодека/Информация : UTF-8 Plain Text
Продолжительность : 1 ч. 22 м.
Битрейт : 47 бит/сек
ElementCount : 804
Размер потока : 28,3 Кбайт (0%)
Заголовок : SDH
Язык : English
Default : Нет
Forced : Нет
Меню
00:00:00.000 : en:00:00:00.000
00:07:41.753 : en:00:07:41.753
00:13:41.320 : en:00:13:41.320
00:19:58.864 : en:00:19:58.864
00:26:52.027 : en:00:26:52.027
00:34:34.739 : en:00:34:34.739
00:42:18.369 : en:00:42:18.369
00:47:21.338 : en:00:47:21.338
00:56:05.237 : en:00:56:05.237
01:02:44.260 : en:01:02:44.260
01:11:04.343 : en:01:11:04.343
01:15:45.416 : en:01:15:45.416

If you like the topic, please click share to help develop our site.

To download the file disable ad blocking, and reload the page.

disable adblock How to disable ad blocking?

Download by magnet link 23.8 GB Download Torrent

Login using:

Similar topics

Креола / Kreola (1993) DVDRip | L1
 1.4 GB   0 | 0   09-Oct-16 20:33   59
Большая игра / Molly's Game (2017) BDRip 1080p от & | iTunes
 7.49 GB   14 | 0   05-Apr-18 22:30   17
Пансионат Борегар / Beauregard (2009) HDTV 1080 | P2
 9.04 GB   0 | 0   17-Jan-17 20:19   16
Призрак / Malombra (1984) DVDRip | A
 1.41 GB   4 | 0   17-Jan-17 20:50   16


   
Current time is: 16-Jul 09:14 :: All times are UTC + 3