Информация о фильме
Название: Гордая Мэри
Оригинальное название: Proud Mary
Год выхода: 2018
Жанр: Боевик, триллер
Режиссер: Бабак Наджафи
В ролях: Тараджи П. Хенсон, Билли Браун, Нил МакДонаф, Маргарет Эйвери, Ксандер Беркли, Раде Шербеджия, Эрик Ларей Харви, Дэнни Гловер
О фильме:
На протяжении долгих лет Мэри является членом опасной преступной группировки, безжалостно и хладнокровно устраняя врагов, конкурентов и просто неугодных людей по приказу влиятельных боссов. Во время выполнения очередного заказа она впервые проявляет слабость и сохраняет жизнь ничего не подозревающему подростку, ставшему сиротой в результате её действий. Через год судьба вновь сводит её с тем самым пареньком, который теперь работает на одного из членов банды. Видя, как парень страдает от постоянных побоев и жестокого обращения, Мэри решает взять его под свою опеку.

Страна: США
Студия: Screen Gems
Продолжительность: 01:29:02
Перевод: Профессиональный (многоголосый, закадровый)
Файл
Формат: mkv
Качество: BDRip 720p | Blu-ray 1080p |
Видео: AVC, 1280x534 (2.40:1), 23.976 fps, 4 546 Kbps (0.277 bit/pixel)
Аудио #1: AC-3, 48.0 KHz, 6 ch, 448 Kbps, CBR (Russian) - многоголосый, Лицензия BD EUR
Аудио #2: AC-3, 48.0 KHz, 2 ch, 192 Kbps, CBR (Russian) - многоголосый, HDrezka Studio
Аудио #3: AC-3, 48.0 KHz, 6 ch, 448 Kbps, CBR (English) - оригинал
Субтитры: Russian, English
Релиз: &

MediaInfo

Полное имя : D:ФИЛЬМЫГордая Мэри.2018 (Т.П. Хенсон, Б.Браун).k.e.n & MegaPeer.mkv
Формат : Matroska
Версия формата : Version 2
Размер файла : 3,51 Гбайт
Продолжительность : 1 ч. 29 м.
Общий поток : 5637 Кбит/сек
Дата кодирования : UTC 2018-10-24 14:57:13
Программа кодирования : mkvmerge v5.3.0 ('I could have danced') built on Feb 9 2012 10:38:07
Библиотека кодирования : libebml v1.2.3 + libmatroska v1.3.0
Обложка : Yes
Attachments : cover (8).jpg
Видео
Идентификатор : 1
Формат : AVC
Формат/Информация : Advanced Video Codec
Профиль формата : [email protected]
Параметр CABAC формата : Да
Параметр ReFrames формата : 11 кадров
Идентификатор кодека : V_MPEG4/ISO/AVC
Продолжительность : 1 ч. 29 м.
Битрейт : 4546 Кбит/сек
Ширина : 1280 пикселей
Высота : 534 пикселя
Соотношение сторон : 2,40:1
Режим частоты кадров : Постоянный
Частота кадров : 23,976 (24000/1001) кадра/сек
Цветовое пространство : YUV
Субдискретизация насыщенности : 4:2:0
Битовая глубина : 8 бит
Тип развёртки : Прогрессивная
Бит/(Пиксели*Кадры) : 0.277
Размер потока : 2,76 Гбайт (79%)
Библиотека кодирования : x264 core 146 r2538 121396c
Настройки программы : cabac=1 / ref=11 / deblock=1:-3:-3 / analyse=0x3:0x133 / me=umh / subme=11 / psy=1 / psy_rd=1.00:0.00 / mixed_ref=1 / me_range=32 / chroma_me=1 / trellis=2 / 8x8dct=1 / cqm=0 / deadzone=21,11 / fast_pskip=0 / chroma_qp_offset=-2 / threads=12 / lookahead_threads=2 / sliced_threads=0 / nr=0 / decimate=0 / interlaced=0 / bluray_compat=0 / constrained_intra=0 / bframes=11 / b_pyramid=2 / b_adapt=2 / b_bias=0 / direct=3 / weightb=1 / open_gop=0 / weightp=2 / keyint=240 / keyint_min=23 / scenecut=40 / intra_refresh=0 / rc=2pass / mbtree=0 / bitrate=4546 / ratetol=1.0 / qcomp=0.60 / qpmin=0 / qpmax=69 / qpstep=4 / cplxblur=20.0 / qblur=0.5 / ip_ratio=1.40 / pb_ratio=1.30 / aq=3:0.90
Язык : English
Default : Да
Forced : Нет
Аудио #1
Идентификатор : 2
Формат : AC-3
Формат/Информация : Audio Coding 3
Расширение режима : CM (complete main)
Параметр Endianness формата : Big
Идентификатор кодека : A_AC3
Продолжительность : 1 ч. 29 м.
Вид битрейта : Постоянный
Битрейт : 448 Кбит/сек
Каналы : 6 каналов
Расположение каналов : Front: L C R, Side: L R, LFE
Частота : 48,0 КГц
Частота кадров : 31,250 кадров/сек (1536 spf)
Битовая глубина : 16 бит
Метод сжатия : С потерями
Размер потока : 285 Мбайт (8%)
Заголовок : Многоголосый закадровый, Лицензия BD EUR
Язык : Russian
Default : Да
Forced : Нет
Аудио #2
Идентификатор : 3
Формат : AC-3
Формат/Информация : Audio Coding 3
Расширение режима : CM (complete main)
Параметр Endianness формата : Big
Идентификатор кодека : A_AC3
Продолжительность : 1 ч. 29 м.
Вид битрейта : Постоянный
Битрейт : 192 Кбит/сек
Каналы : 2 канала
Расположение каналов : Front: L R
Частота : 48,0 КГц
Частота кадров : 31,250 кадров/сек (1536 spf)
Битовая глубина : 16 бит
Метод сжатия : С потерями
Размер потока : 122 Мбайт (3%)
Заголовок : Многоголосый закадровый, HDrezka Studio
Язык : Russian
Default : Нет
Forced : Нет
Аудио #3
Идентификатор : 4
Формат : AC-3
Формат/Информация : Audio Coding 3
Расширение режима : CM (complete main)
Параметр Endianness формата : Big
Идентификатор кодека : A_AC3
Продолжительность : 1 ч. 29 м.
Вид битрейта : Постоянный
Битрейт : 448 Кбит/сек
Каналы : 6 каналов
Расположение каналов : Front: L C R, Side: L R, LFE
Частота : 48,0 КГц
Частота кадров : 31,250 кадров/сек (1536 spf)
Битовая глубина : 16 бит
Метод сжатия : С потерями
Размер потока : 285 Мбайт (8%)
Заголовок : Оригинал
Язык : English
Default : Нет
Forced : Нет
Текст #1
Идентификатор : 5
Формат : UTF-8
Идентификатор кодека : S_TEXT/UTF8
Идентификатор кодека/Информация : UTF-8 Plain Text
Заголовок : Full
Язык : Russian
Default : Нет
Forced : Нет
Текст #2
Идентификатор : 6
Формат : UTF-8
Идентификатор кодека : S_TEXT/UTF8
Идентификатор кодека/Информация : UTF-8 Plain Text
Заголовок : Full
Язык : English
Default : Нет
Forced : Нет
Текст #3
Идентификатор : 7
Формат : UTF-8
Идентификатор кодека : S_TEXT/UTF8
Идентификатор кодека/Информация : UTF-8 Plain Text
Заголовок : SDH
Язык : English
Default : Нет
Forced : Нет
Меню
00:00:00.000 : en:Chapter 01
00:03:23.077 : en:Chapter 02
00:09:20.268 : en:Chapter 03
00:15:58.374 : en:Chapter 04
00:22:10.245 : en:Chapter 05
00:28:13.650 : en:Chapter 06
00:33:54.198 : en:Chapter 07
00:37:56.357 : en:Chapter 08
00:45:14.920 : en:Chapter 09
00:50:40.120 : en:Chapter 10
00:55:58.229 : en:Chapter 11
00:59:59.095 : en:Chapter 12
01:05:12.992 : en:Chapter 13
01:10:28.724 : en:Chapter 14
01:15:46.542 : en:Chapter 15
01:20:09.179 : en:Chapter 16

Скриншоты


If you like the topic, please click share to help develop our site.

To download the file disable ad blocking, and reload the page.

disable adblock How to disable ad blocking?

Download by magnet link 3.51 GB Download Torrent

Login using:

Similar topics

Гордая Мэри / Proud Mary (2018) BDRip 720p | HDrezka Studio
 4.77 GB   4 | 0   06-Apr-18 20:30   0


   
Current time is: 19-May 23:29 :: All times are UTC + 3