Marion Meadows - Soul Traveler
Жанр: Smooth Jazz
Носитель: CD
Страна-производитель диска (релиза): США
Год издания: 2015
Издатель (лейбл): Shanachie
Номер по каталогу: SHA-5425
Аудиокодек: FLAC (*.flac)
Тип рипа: tracks+.cue
Битрейт аудио: lossless
Продолжительность: 51:47
Источник (релизер): EasyListener
Наличие сканов в содержимом раздачи: нет
Треклист:
01. Celebration Road (feat. Najee) (4:43)
02. Magic Men (feat. Elan Trotman) (4:15)
03. Andalusian Sunset (4:26)
04. Soul Traveler (4:08)
05. Humanity (feat. Lamar Gaines) (4:23)
06. Invisible (4:24)
07. Mother Earth (feat. Tony TB Bias) (4:34)
08. Dark Beauty (feat. Lamar Gaines) (4:19)
09. Life in the Clouds (feat. Joey Sommerville & Kyle Turner) (4:11)
10. Dream Catcher (4:01)
11. Real Time (feat. Vincent Ingala) (4:13)
12. Last Ticket to Somewhere (4:10)

Лог создания рипа

X Lossless Decoder version 20141129a (148.2)
XLD extraction logfile from 2016-11-08 20:29:09 -0700
Marion Meadows / Soul Traveler
Used drive : HL-DT-ST DVDRAM SP60NB50 (revision 1.00)Media type : Pressed CD
Ripper mode : XLD Secure RipperDisable audio cache : OK for the drive with a cache less than 1375KiBMake use of C2 pointers : NORead offset correction : 6Max retry count : 100Gap status : Analyzed, Appended (except HTOA)
TOC of the extracted CD Track | Start | Length | Start sector | End sector --------------------------------------------------------- 1 | 00:00:00 | 04:42:41 | 0 | 21190 2 | 04:42:41 | 04:14:66 | 21191 | 40306 3 | 08:57:32 | 04:26:09 | 40307 | 60265 4 | 13:23:41 | 04:07:45 | 60266 | 78835 5 | 17:31:11 | 04:22:44 | 78836 | 98529 6 | 21:53:55 | 04:24:16 | 98530 | 118345 7 | 26:17:71 | 04:34:07 | 118346 | 138902 8 | 30:52:03 | 04:19:23 | 138903 | 158350 9 | 35:11:26 | 04:11:34 | 158351 | 177209 10 | 39:22:60 | 04:00:62 | 177210 | 195271 11 | 43:23:47 | 04:12:52 | 195272 | 214223 12 | 47:36:24 | 04:09:55 | 214224 | 232953
AccurateRip Summary (DiscID: 001769b6-00d9ccb3-a30c220c) Track 01 : OK (v2, confidence 1/1) Track 02 : OK (v2, confidence 1/1) Track 03 : OK (v2, confidence 1/1) Track 04 : OK (v2, confidence 1/1) Track 05 : OK (v2, confidence 1/1) Track 06 : OK (v2, confidence 1/1) Track 07 : OK (v2, confidence 1/1) Track 08 : OK (v2, confidence 1/1) Track 09 : OK (v2, confidence 1/1) Track 10 : OK (v2, confidence 1/1) Track 11 : OK (v2, confidence 1/1) Track 12 : OK (v2, confidence 1/1) ->All tracks accurately ripped.
All Tracks Album gain : -8.66 dB Peak : 0.988586 Statistics Read error : 0 Jitter error (maybe fixed) : 0 Retry sector count : 0 Damaged sector count : 0
Track 01 Filename : /FLAC Rips/library rips/Marion Meadows - Soul Traveler (2015) [FLAC]/01 Celebration Road (Featuring Najee).flac Pre-gap length : 00:02:00
Track gain : -8.96 dB Peak : 0.988586 CRC32 hash (test run) : 63680B5D CRC32 hash : 63680B5D CRC32 hash (skip zero) : 22040EAF AccurateRip v1 signature : 9611AA6D AccurateRip v2 signature : AD59A559 ->Accurately ripped (v2, confidence 1/1) Statistics Read error : 0 Jitter error (maybe fixed) : 0 Retry sector count : 0 Damaged sector count : 0
Track 02 Filename : /FLAC Rips/library rips/Marion Meadows - Soul Traveler (2015) [FLAC]/02 Magic Men (Featuring Elan Trotman).flac Pre-gap length : 00:01:00
Track gain : -8.77 dB Peak : 0.988586 CRC32 hash (test run) : F03D5B3E CRC32 hash : F03D5B3E CRC32 hash (skip zero) : 05FC3653 AccurateRip v1 signature : FF95E6BC AccurateRip v2 signature : BF6D270F ->Accurately ripped (v2, confidence 1/1) Statistics Read error : 0 Jitter error (maybe fixed) : 0 Retry sector count : 0 Damaged sector count : 0
Track 03 Filename : /FLAC Rips/library rips/Marion Meadows - Soul Traveler (2015) [FLAC]/03 Andalusian Sunset.flac Pre-gap length : 00:01:00
Track gain : -8.26 dB Peak : 0.988586 CRC32 hash (test run) : FD579C02 CRC32 hash : FD579C02 CRC32 hash (skip zero) : E1D025DA AccurateRip v1 signature : AFA4A92F AccurateRip v2 signature : 0AB9B744 ->Accurately ripped (v2, confidence 1/1) Statistics Read error : 0 Jitter error (maybe fixed) : 0 Retry sector count : 0 Damaged sector count : 0
Track 04 Filename : /FLAC Rips/library rips/Marion Meadows - Soul Traveler (2015) [FLAC]/04 Soul Traveler.flac Pre-gap length : 00:01:00
Track gain : -7.64 dB Peak : 0.988586 CRC32 hash (test run) : BFD0456B CRC32 hash : BFD0456B CRC32 hash (skip zero) : 6B109780 AccurateRip v1 signature : 9B78B9F9 AccurateRip v2 signature : F1609F1E ->Accurately ripped (v2, confidence 1/1) Statistics Read error : 0 Jitter error (maybe fixed) : 0 Retry sector count : 0 Damaged sector count : 0
Track 05 Filename : /FLAC Rips/library rips/Marion Meadows - Soul Traveler (2015) [FLAC]/05 Humanity (Featuring Lamar Gaines).flac Pre-gap length : 00:01:00
Track gain : -9.81 dB Peak : 0.988586 CRC32 hash (test run) : 819C8F3A CRC32 hash : 819C8F3A CRC32 hash (skip zero) : 9405A9B9 AccurateRip v1 signature : 5872DCF7 AccurateRip v2 signature : B2094FA3 ->Accurately ripped (v2, confidence 1/1) Statistics Read error : 0 Jitter error (maybe fixed) : 0 Retry sector count : 0 Damaged sector count : 0
Track 06 Filename : /FLAC Rips/library rips/Marion Meadows - Soul Traveler (2015) [FLAC]/06 Invisible.flac Pre-gap length : 00:01:00
Track gain : -7.44 dB Peak : 0.988586 CRC32 hash (test run) : 001B651E CRC32 hash : 001B651E CRC32 hash (skip zero) : 863AF002 AccurateRip v1 signature : 92431BCB AccurateRip v2 signature : 98EC7CCC ->Accurately ripped (v2, confidence 1/1) Statistics Read error : 0 Jitter error (maybe fixed) : 0 Retry sector count : 0 Damaged sector count : 0
Track 07 Filename : /FLAC Rips/library rips/Marion Meadows - Soul Traveler (2015) [FLAC]/07 Mother Earth (Featuring Tony TB Bias).flac Pre-gap length : 00:01:00
Track gain : -9.01 dB Peak : 0.988586 CRC32 hash (test run) : B784C8A0 CRC32 hash : B784C8A0 CRC32 hash (skip zero) : 6A67E8DF AccurateRip v1 signature : 3E107AB8 AccurateRip v2 signature : 9242F3B7 ->Accurately ripped (v2, confidence 1/1) Statistics Read error : 0 Jitter error (maybe fixed) : 0 Retry sector count : 0 Damaged sector count : 0
Track 08 Filename : /FLAC Rips/library rips/Marion Meadows - Soul Traveler (2015) [FLAC]/08 Dark Beauty (Featuring Lamar Gaines).flac Pre-gap length : 00:01:00
Track gain : -9.47 dB Peak : 0.988586 CRC32 hash (test run) : E0F0FAAC CRC32 hash : E0F0FAAC CRC32 hash (skip zero) : 00AA9E71 AccurateRip v1 signature : 945DDB48 AccurateRip v2 signature : 38F539E9 ->Accurately ripped (v2, confidence 1/1) Statistics Read error : 0 Jitter error (maybe fixed) : 0 Retry sector count : 0 Damaged sector count : 0
Track 09 Filename : /FLAC Rips/library rips/Marion Meadows - Soul Traveler (2015) [FLAC]/09 Life In The Clouds (Featuring Joey Summerville & Kyle Turner).flac Pre-gap length : 00:01:00
Track gain : -7.96 dB Peak : 0.988586 CRC32 hash (test run) : CC864567 CRC32 hash : CC864567 CRC32 hash (skip zero) : 8FCAEC77 AccurateRip v1 signature : 5942D69C AccurateRip v2 signature : D6E4BA00 ->Accurately ripped (v2, confidence 1/1) Statistics Read error : 0 Jitter error (maybe fixed) : 0 Retry sector count : 0 Damaged sector count : 0
Track 10 Filename : /FLAC Rips/library rips/Marion Meadows - Soul Traveler (2015) [FLAC]/10 Dream Catcher.flac Pre-gap length : 00:01:00
Track gain : -7.79 dB Peak : 0.988586 CRC32 hash (test run) : EE98B3B2 CRC32 hash : EE98B3B2 CRC32 hash (skip zero) : 6960BFDF AccurateRip v1 signature : D3BFF058 AccurateRip v2 signature : B62178A2 ->Accurately ripped (v2, confidence 1/1) Statistics Read error : 0 Jitter error (maybe fixed) : 0 Retry sector count : 0 Damaged sector count : 0
Track 11 Filename : /FLAC Rips/library rips/Marion Meadows - Soul Traveler (2015) [FLAC]/11 Real Time (Featuring Vincent Ingala).flac Pre-gap length : 00:01:00
Track gain : -7.94 dB Peak : 0.988586 CRC32 hash (test run) : E10EB9CA CRC32 hash : E10EB9CA CRC32 hash (skip zero) : DACE6AD1 AccurateRip v1 signature : A40D145E AccurateRip v2 signature : 0810EACD ->Accurately ripped (v2, confidence 1/1) Statistics Read error : 0 Jitter error (maybe fixed) : 0 Retry sector count : 0 Damaged sector count : 0
Track 12 Filename : /FLAC Rips/library rips/Marion Meadows - Soul Traveler (2015) [FLAC]/12 Last Ticket To Somewhere.flac Pre-gap length : 00:01:00
Track gain : -8.44 dB Peak : 0.988586 CRC32 hash (test run) : C5C38C37 CRC32 hash : C5C38C37 CRC32 hash (skip zero) : 07EE9088 AccurateRip v1 signature : B15FF7F8 AccurateRip v2 signature : DD357C38 ->Accurately ripped (v2, confidence 1/1) Statistics Read error : 0 Jitter error (maybe fixed) : 0 Retry sector count : 0 Damaged sector count : 0
No errors occurred
End of status report
-----BEGIN XLD SIGNATURE-----RSFouwyRqZxyyAiUkYGQdQmwo.ME5OFc8o0l4Q_VhseIC5U0cJ0pn6P0VKIwyKJfZFgHmZw75g.sidlBZmel7ofMoIjDzRAiAZUtRFy-----END XLD SIGNATURE-----

Содержание индексной карты (.CUE)

TITLE "Soul Traveler"PERFORMER "Marion Meadows"CATALOG 0016351542526REM GENRE "Jazz"REM DATE "2015"REM DISCID A30C220CREM REPLAYGAIN_ALBUM_GAIN -8.66 dBREM REPLAYGAIN_ALBUM_PEAK 0.988586FILE "01 - Celebration Road (feat. Najee).flac" WAVE  TRACK 01 AUDIO    TITLE "Celebration Road (feat. Najee)"    ISRC USCUE1500001    REM REPLAYGAIN_TRACK_GAIN -8.96 dB    REM REPLAYGAIN_TRACK_PEAK 0.988586    INDEX 01 00:00:00  TRACK 02 AUDIO    TITLE "Magic Men (feat. Elan Trotman)"    ISRC USCUE1500002    REM REPLAYGAIN_TRACK_GAIN -8.77 dB    REM REPLAYGAIN_TRACK_PEAK 0.988586    INDEX 00 04:41:41FILE "02 - Magic Men (feat. Elan Trotman).flac" WAVE    INDEX 01 00:00:00  TRACK 03 AUDIO    TITLE "Andalusian Sunset"    ISRC USCUE1500003    REM REPLAYGAIN_TRACK_GAIN -8.26 dB    REM REPLAYGAIN_TRACK_PEAK 0.988586    INDEX 00 04:13:66FILE "03 - Andalusian Sunset.flac" WAVE    INDEX 01 00:00:00  TRACK 04 AUDIO    TITLE "Soul Traveler"    ISRC USCUE1500004    REM REPLAYGAIN_TRACK_GAIN -7.64 dB    REM REPLAYGAIN_TRACK_PEAK 0.988586    INDEX 00 04:25:09FILE "04 - Soul Traveler.flac" WAVE    INDEX 01 00:00:00  TRACK 05 AUDIO    TITLE "Humanity (feat. Lamar Gaines)"    ISRC USCUE1500005    REM REPLAYGAIN_TRACK_GAIN -9.81 dB    REM REPLAYGAIN_TRACK_PEAK 0.988586    INDEX 00 04:06:45FILE "05 - Humanity (feat. Lamar Gaines).flac" WAVE    INDEX 01 00:00:00  TRACK 06 AUDIO    TITLE "Invisible"    ISRC USCUE1500006    REM REPLAYGAIN_TRACK_GAIN -7.44 dB    REM REPLAYGAIN_TRACK_PEAK 0.988586    INDEX 00 04:21:44FILE "06 - Invisible.flac" WAVE    INDEX 01 00:00:00  TRACK 07 AUDIO    TITLE "Mother Earth (feat. Tony TB Bias)"    ISRC USCUE1500007    REM REPLAYGAIN_TRACK_GAIN -9.01 dB    REM REPLAYGAIN_TRACK_PEAK 0.988586    INDEX 00 04:23:16FILE "07 - Mother Earth (feat. Tony TB Bias).flac" WAVE    INDEX 01 00:00:00  TRACK 08 AUDIO    TITLE "Dark Beauty (feat. Lamar Gaines)"    ISRC USCUE1500008    REM REPLAYGAIN_TRACK_GAIN -9.47 dB    REM REPLAYGAIN_TRACK_PEAK 0.988586    INDEX 00 04:33:07FILE "08 - Dark Beauty (feat. Lamar Gaines).flac" WAVE    INDEX 01 00:00:00  TRACK 09 AUDIO    TITLE "Life in the Clouds (feat. Joey Sommerville & Kyle Turner)"    ISRC USCUE1500009    REM REPLAYGAIN_TRACK_GAIN -7.96 dB    REM REPLAYGAIN_TRACK_PEAK 0.988586    INDEX 00 04:18:23FILE "09 - Life in the Clouds (feat. Joey Sommerville & Kyle Turner).flac" WAVE    INDEX 01 00:00:00  TRACK 10 AUDIO    TITLE "Dream Catcher"    ISRC USCUE1500010    REM REPLAYGAIN_TRACK_GAIN -7.79 dB    REM REPLAYGAIN_TRACK_PEAK 0.988586    INDEX 00 04:10:34FILE "10 - Dream Catcher.flac" WAVE    INDEX 01 00:00:00  TRACK 11 AUDIO    TITLE "Real Time (feat. Vincent Ingala)"    ISRC USCUE1500011    REM REPLAYGAIN_TRACK_GAIN -7.94 dB    REM REPLAYGAIN_TRACK_PEAK 0.988586    INDEX 00 03:59:62FILE "11 - Real Time (feat. Vincent Ingala).flac" WAVE    INDEX 01 00:00:00  TRACK 12 AUDIO    TITLE "Last Ticket to Somewhere"    ISRC USCUE1500012    REM REPLAYGAIN_TRACK_GAIN -8.44 dB    REM REPLAYGAIN_TRACK_PEAK 0.988586    INDEX 00 04:11:52FILE "12 - Last Ticket to Somewhere.flac" WAVE    INDEX 01 00:00:00

Отчет CUETools

[CUETools log; Date: 24.10.2018 19:02:46; Version: 2.1.5][CTDB TOCID: JNEpoQFeHLEu8U5d9qJOpDvoGQs-] found.Track | CTDB Status  1   | (8/8) Accurately ripped  2   | (8/8) Accurately ripped  3   | (8/8) Accurately ripped  4   | (8/8) Accurately ripped  5   | (8/8) Accurately ripped  6   | (8/8) Accurately ripped  7   | (8/8) Accurately ripped  8   | (8/8) Accurately ripped  9   | (8/8) Accurately ripped 10   | (8/8) Accurately ripped 11   | (8/8) Accurately ripped 12   | (8/8) Accurately ripped[AccurateRip ID: 001769b6-00d9ccb3-a30c220c] found.Track   [  CRC   |   V2   ] Status 01     [9611aa6d|ad59a559] (0+3/3) Accurately ripped 02     [ff95e6bc|bf6d270f] (0+3/3) Accurately ripped 03     [afa4a92f|0ab9b744] (0+3/3) Accurately ripped 04     [9b78b9f9|f1609f1e] (0+3/3) Accurately ripped 05     [5872dcf7|b2094fa3] (0+3/3) Accurately ripped 06     [92431bcb|98ec7ccc] (0+3/3) Accurately ripped 07     [3e107ab8|9242f3b7] (0+3/3) Accurately ripped 08     [945ddb48|38f539e9] (0+3/3) Accurately ripped 09     [5942d69c|d6e4ba00] (0+3/3) Accurately ripped 10     [d3bff058|b62178a2] (0+3/3) Accurately ripped 11     [a40d145e|0810eacd] (0+3/3) Accurately ripped 12     [b15ff7f8|dd357c38] (0+3/3) Accurately ripped
Track Peak [ CRC32 ] [W/O NULL] -- 98,8 [F4EA2B2E] [27AE4CED] 01 98,8 [63680B5D] [22040EAF] 02 98,8 [F03D5B3E] [05FC3653] 03 98,8 [FD579C02] [E1D025DA] 04 98,8 [BFD0456B] [6B109780] 05 98,8 [819C8F3A] [9405A9B9] 06 98,8 [001B651E] [863AF002] 07 98,8 [B784C8A0] [6A67E8DF] 08 98,8 [E0F0FAAC] [00AA9E71] 09 98,8 [CC864567] [8FCAEC77] 10 98,8 [EE98B3B2] [6960BFDF] 11 98,8 [E10EB9CA] [DACE6AD1] 12 98,8 [C5C38C37] [07EE9088]

Об альбоме (сборнике)

Smooth Jazz Superstar Marion Meadows is without question one of the most popular and unique talents on the Jazz scene today. Blessed with movie star looks and the smoothest saxophone tone on the planet, Marion has sold close to one million albums in his brilliant career. His constant string of radio hits and relentless touring have garnered legions of fans, and his appearances with such varied artists as the Temptations, Michael Bolton and Will Downing are a testament to his broad audience appeal.
Soul Traveler, Marion s most intimate and heartfelt album to date, takes the listener on a sensuous journey through a soundscape of brilliant original compositions and masterful improvisations. The album is co-produced by Marion s long-time collaborator Carlo Panisi, who produced Marion s previous Shanachie album, Whisper , which debuted at #1 on the Smooth Jazz charts, and garnered 3 Top 10 Smooth Jazz Radio singles.
Highlights include the spirited Latin-tinged Celebration Road featuring the great Najee on flute, the deeply sensuous ballad Dark Beauty , Real Time featuring up and coming Smooth Jazz superstar Vincent Ingala and much more.

If you like the topic, please click share to help develop our site.

To download the file disable ad blocking, and reload the page.

disable adblock How to disable ad blocking?

Download by magnet link 325 MB Download Torrent

Login using:

Similar topics



   
Current time is: 21-Mar 06:26 :: All times are UTC + 3