Marion Meadows - Soul City
Жанр: Smooth Jazz
Носитель: CD
Страна-производитель диска (релиза): США
Год издания: 2018
Издатель (лейбл): Shanachie
Номер по каталогу: 5455
Аудиокодек: FLAC (*.flac)
Тип рипа: tracks+.cue
Битрейт аудио: lossless
Продолжительность: 46:17
Источник (релизер): Qu4rtz
Наличие сканов в содержимом раздачи: нет
Треклист:
01. Soul City (feat. Norman Brown & Joey Sommerville) (3:51)
02. Dreamin (feat. Maysa & Peter White) (3:57)
03. You (feat. Will Gaines) (4:43)
04. Merry Go Round (feat. Latrese Bush) (3:35)
05. Time After Time (feat. Peabo Bryson) (5:28)
06. Consequences (3:57)
07. Be with You (feat. Kim Flemming) (5:29)
08. Samba de Playa (feat. Will Downing) (4:49)
09. No Wind, No Rain (feat. Dana Lauren) (4:06)
10. Only (feat. Kaimi Hananoeau) (6:22)

Лог создания рипа

X Lossless Decoder version 20170729 (150.3)
XLD extraction logfile from 2018-07-27 13:43:14 -0500
Marion Meadows / Soul City
Used drive : HL-DT-ST DVDRW GX40N (revision RQ00)Media type : Pressed CD
Ripper mode : XLD Secure RipperDisable audio cache : OK for the drive with a cache less than 1375KiBMake use of C2 pointers : NORead offset correction : 6Max retry count : 100Gap status : Analyzed, Appended (except HTOA)
TOC of the extracted CD Track | Start | Length | Start sector | End sector --------------------------------------------------------- 1 | 00:00:00 | 03:50:53 | 0 | 17302 2 | 03:50:53 | 03:56:59 | 17303 | 35061 3 | 07:47:37 | 04:42:41 | 35062 | 56252 4 | 12:30:03 | 03:34:40 | 56253 | 72342 5 | 16:04:43 | 05:28:13 | 72343 | 96955 6 | 21:32:56 | 03:56:56 | 96956 | 114711 7 | 25:29:37 | 05:28:38 | 114712 | 139349 8 | 30:58:00 | 04:49:12 | 139350 | 161036 9 | 35:47:12 | 04:06:08 | 161037 | 179494 10 | 39:53:20 | 06:21:45 | 179495 | 208114
AccurateRip Summary (DiscID: 00107d32-0085a924-8b0ad60a) Track 01 : OK (v2, confidence 3/3) Track 02 : OK (v2, confidence 3/3) Track 03 : OK (v2, confidence 3/3) Track 04 : OK (v2, confidence 3/3) Track 05 : OK (v2, confidence 3/3) Track 06 : OK (v2, confidence 3/3) Track 07 : OK (v2, confidence 3/3) Track 08 : OK (v2, confidence 3/3) Track 09 : OK (v2, confidence 3/3) Track 10 : OK (v2, confidence 3/3) ->All tracks accurately ripped.
All Tracks Album gain : -7.78 dB Peak : 0.984070 Statistics Read error : 0 Jitter error (maybe fixed) : 0 Retry sector count : 0 Damaged sector count : 0
Track 01 Filename : /XLD Rips/Marion Meadows - Soul City (2018) [FLAC]/01 Soul City (Feat. Norman Brown & Joey Sommerville).flac /XLD Rips/Marion Meadows - Soul City (2018) [V0]/01 Soul City (Feat. Norman Brown & Joey Sommerville).mp3 /XLD Rips/Marion Meadows - Soul City (2018) [LAME MP3 (CBR 320kbps)]/01 Soul City (Feat. Norman Brown & Joey Sommerville).mp3 Pre-gap length : 00:02:00
Track gain : -7.58 dB Peak : 0.984070 CRC32 hash (test run) : 9DB5178C CRC32 hash : 9DB5178C CRC32 hash (skip zero) : 670CCB55 AccurateRip v1 signature : F1814576 AccurateRip v2 signature : 6E27A406 ->Accurately ripped (v2, confidence 3/3) Statistics Read error : 0 Jitter error (maybe fixed) : 0 Retry sector count : 0 Damaged sector count : 0
Track 02 Filename : /XLD Rips/Marion Meadows - Soul City (2018) [FLAC]/02 Dreamin (Feat. Maysa & Peter White).flac /XLD Rips/Marion Meadows - Soul City (2018) [V0]/02 Dreamin (Feat. Maysa & Peter White).mp3 /XLD Rips/Marion Meadows - Soul City (2018) [LAME MP3 (CBR 320kbps)]/02 Dreamin (Feat. Maysa & Peter White).mp3
Track gain : -6.76 dB Peak : 0.984070 CRC32 hash (test run) : 8C6E6802 CRC32 hash : 8C6E6802 CRC32 hash (skip zero) : BABD8FF6 AccurateRip v1 signature : 496176F5 AccurateRip v2 signature : 8C39025B ->Accurately ripped (v2, confidence 3/3) Statistics Read error : 0 Jitter error (maybe fixed) : 0 Retry sector count : 0 Damaged sector count : 0
Track 03 Filename : /XLD Rips/Marion Meadows - Soul City (2018) [FLAC]/03 You (Feat. Will Gaines).flac /XLD Rips/Marion Meadows - Soul City (2018) [V0]/03 You (Feat. Will Gaines).mp3 /XLD Rips/Marion Meadows - Soul City (2018) [LAME MP3 (CBR 320kbps)]/03 You (Feat. Will Gaines).mp3
Track gain : -8.40 dB Peak : 0.984070 CRC32 hash (test run) : B79BBCC3 CRC32 hash : B79BBCC3 CRC32 hash (skip zero) : AB29950B AccurateRip v1 signature : 6854DDA0 AccurateRip v2 signature : C4EEABF1 ->Accurately ripped (v2, confidence 3/3) Statistics Read error : 0 Jitter error (maybe fixed) : 0 Retry sector count : 0 Damaged sector count : 0
Track 04 Filename : /XLD Rips/Marion Meadows - Soul City (2018) [FLAC]/04 Merry Go Round (Feat. Latrese Bush).flac /XLD Rips/Marion Meadows - Soul City (2018) [V0]/04 Merry Go Round (Feat. Latrese Bush).mp3 /XLD Rips/Marion Meadows - Soul City (2018) [LAME MP3 (CBR 320kbps)]/04 Merry Go Round (Feat. Latrese Bush).mp3
Track gain : -8.66 dB Peak : 0.984070 CRC32 hash (test run) : 4A35EC01 CRC32 hash : 4A35EC01 CRC32 hash (skip zero) : B3BA6EA0 AccurateRip v1 signature : 5501996E AccurateRip v2 signature : CAEBE90F ->Accurately ripped (v2, confidence 3/3) Statistics Read error : 0 Jitter error (maybe fixed) : 0 Retry sector count : 0 Damaged sector count : 0
Track 05 Filename : /XLD Rips/Marion Meadows - Soul City (2018) [FLAC]/05 Time After Time (Feat. Peabo Bryson).flac /XLD Rips/Marion Meadows - Soul City (2018) [V0]/05 Time After Time (Feat. Peabo Bryson).mp3 /XLD Rips/Marion Meadows - Soul City (2018) [LAME MP3 (CBR 320kbps)]/05 Time After Time (Feat. Peabo Bryson).mp3
Track gain : -7.07 dB Peak : 0.984070 CRC32 hash (test run) : 99C51D49 CRC32 hash : 99C51D49 CRC32 hash (skip zero) : AD909D79 AccurateRip v1 signature : 542D13B5 AccurateRip v2 signature : 7E715F55 ->Accurately ripped (v2, confidence 3/3) Statistics Read error : 0 Jitter error (maybe fixed) : 0 Retry sector count : 0 Damaged sector count : 0
Track 06 Filename : /XLD Rips/Marion Meadows - Soul City (2018) [FLAC]/06 Consequences.flac /XLD Rips/Marion Meadows - Soul City (2018) [V0]/06 Consequences.mp3 /XLD Rips/Marion Meadows - Soul City (2018) [LAME MP3 (CBR 320kbps)]/06 Consequences.mp3
Track gain : -8.35 dB Peak : 0.984070 CRC32 hash (test run) : 844B6DA9 CRC32 hash : 844B6DA9 CRC32 hash (skip zero) : AF044739 AccurateRip v1 signature : 2A4F4F59 AccurateRip v2 signature : 7D598339 ->Accurately ripped (v2, confidence 3/3) Statistics Read error : 0 Jitter error (maybe fixed) : 0 Retry sector count : 0 Damaged sector count : 0
Track 07 Filename : /XLD Rips/Marion Meadows - Soul City (2018) [FLAC]/07 Be With You (Feat. Kim Flemming).flac /XLD Rips/Marion Meadows - Soul City (2018) [V0]/07 Be With You (Feat. Kim Flemming).mp3 /XLD Rips/Marion Meadows - Soul City (2018) [LAME MP3 (CBR 320kbps)]/07 Be With You (Feat. Kim Flemming).mp3
Track gain : -7.15 dB Peak : 0.984070 CRC32 hash (test run) : 408E54FA CRC32 hash : 408E54FA CRC32 hash (skip zero) : 4867F5BC AccurateRip v1 signature : F7CB7C80 AccurateRip v2 signature : DC3698D3 ->Accurately ripped (v2, confidence 3/3) Statistics Read error : 0 Jitter error (maybe fixed) : 0 Retry sector count : 0 Damaged sector count : 0
Track 08 Filename : /XLD Rips/Marion Meadows - Soul City (2018) [FLAC]/08 Samba De Playa (Feat. Will Downing).flac /XLD Rips/Marion Meadows - Soul City (2018) [V0]/08 Samba De Playa (Feat. Will Downing).mp3 /XLD Rips/Marion Meadows - Soul City (2018) [LAME MP3 (CBR 320kbps)]/08 Samba De Playa (Feat. Will Downing).mp3
Track gain : -7.68 dB Peak : 0.984070 CRC32 hash (test run) : B6423FF4 CRC32 hash : B6423FF4 CRC32 hash (skip zero) : AF03F1DF AccurateRip v1 signature : 2CABC429 AccurateRip v2 signature : D1E01577 ->Accurately ripped (v2, confidence 3/3) Statistics Read error : 0 Jitter error (maybe fixed) : 0 Retry sector count : 0 Damaged sector count : 0
Track 09 Filename : /XLD Rips/Marion Meadows - Soul City (2018) [FLAC]/09 No Wind, No Rain (Feat. Dana Lauren).flac /XLD Rips/Marion Meadows - Soul City (2018) [V0]/09 No Wind, No Rain (Feat. Dana Lauren).mp3 /XLD Rips/Marion Meadows - Soul City (2018) [LAME MP3 (CBR 320kbps)]/09 No Wind, No Rain (Feat. Dana Lauren).mp3
Track gain : -8.91 dB Peak : 0.984070 CRC32 hash (test run) : 02977C9D CRC32 hash : 02977C9D CRC32 hash (skip zero) : 6401AC5C AccurateRip v1 signature : A30C32BA AccurateRip v2 signature : D658865B ->Accurately ripped (v2, confidence 3/3) Statistics Read error : 0 Jitter error (maybe fixed) : 0 Retry sector count : 0 Damaged sector count : 0
Track 10 Filename : /XLD Rips/Marion Meadows - Soul City (2018) [FLAC]/10 Only (Feat. Kaimi Hananoeau).flac /XLD Rips/Marion Meadows - Soul City (2018) [V0]/10 Only (Feat. Kaimi Hananoeau).mp3 /XLD Rips/Marion Meadows - Soul City (2018) [LAME MP3 (CBR 320kbps)]/10 Only (Feat. Kaimi Hananoeau).mp3
Track gain : -6.66 dB Peak : 0.984070 CRC32 hash (test run) : F3C4E242 CRC32 hash : F3C4E242 CRC32 hash (skip zero) : 34D40FC7 AccurateRip v1 signature : B0EF257E AccurateRip v2 signature : 69CA72E3 ->Accurately ripped (v2, confidence 3/3) Statistics Read error : 0 Jitter error (maybe fixed) : 0 Retry sector count : 0 Damaged sector count : 0
No errors occurred
End of status report
-----BEGIN XLD SIGNATURE-----GxBc1rs_NpjicItyTw5J7Juua8s1Myl4QBYuM_ViNih8Br4tOIkJpP7Vx9O7cxm9cfekOQ9_Qv8RNcgkjk2INHhn08X4mlmKzNUmLsq-----END XLD SIGNATURE-----

Содержание индексной карты (.CUE)

TITLE "Soul City"PERFORMER "Marion Meadows"REM GENRE "Jazz"REM DATE "2018"REM DISCID 8B0AD60AFILE "01 - Soul City (feat. Norman Brown & Joey Sommerville).wav" WAVE  TRACK 01 AUDIO    TITLE "Soul City (feat. Norman Brown & Joey Sommerville)"    ISRC US7SF1856560    INDEX 01 00:00:00FILE "02 - Dreamin (feat. Maysa & Peter White).wav" WAVE  TRACK 02 AUDIO    TITLE "Dreamin (feat. Maysa & Peter White)"    ISRC US7SF1856561    INDEX 01 00:00:00FILE "03 - You (feat. Will Gaines).wav" WAVE  TRACK 03 AUDIO    TITLE "You (feat. Will Gaines)"    ISRC US7SF1856562    INDEX 01 00:00:00FILE "04 - Merry Go Round (feat. Latrese Bush).wav" WAVE  TRACK 04 AUDIO    TITLE "Merry Go Round (feat. Latrese Bush)"    ISRC US7SF1856563    INDEX 01 00:00:00FILE "05 - Time After Time (feat. Peabo Bryson).wav" WAVE  TRACK 05 AUDIO    TITLE "Time After Time (feat. Peabo Bryson)"    ISRC US7SF1856564    INDEX 01 00:00:00FILE "06 - Consequences.wav" WAVE  TRACK 06 AUDIO    TITLE "Consequences"    ISRC US7SF1856565    INDEX 01 00:00:00FILE "07 - Be with You (feat. Kim Flemming).wav" WAVE  TRACK 07 AUDIO    TITLE "Be with You (feat. Kim Flemming)"    ISRC US7SF1856566    INDEX 01 00:00:00FILE "08 - Samba de Playa (feat. Will Downing).wav" WAVE  TRACK 08 AUDIO    TITLE "Samba de Playa (feat. Will Downing)"    ISRC US7SF1856567    INDEX 01 00:00:00FILE "09 - No Wind, No Rain (feat. Dana Lauren).wav" WAVE  TRACK 09 AUDIO    TITLE "No Wind, No Rain (feat. Dana Lauren)"    ISRC US7SF1856568    INDEX 01 00:00:00FILE "10 - Only (feat. Kaimi Hananoeau).wav" WAVE  TRACK 10 AUDIO    TITLE "Only (feat. Kaimi Hananoeau)"    ISRC US7SF1856569    INDEX 01 00:00:00

Отчет CUETools

[CUETools log; Date: 24.10.2018 18:50:43; Version: 2.1.5][CTDB TOCID: ._gdCVp9sJXyKckoIpZlQoXCxG4-] found.Track | CTDB Status  1   | (4/4) Accurately ripped  2   | (4/4) Accurately ripped  3   | (4/4) Accurately ripped  4   | (4/4) Accurately ripped  5   | (4/4) Accurately ripped  6   | (4/4) Accurately ripped  7   | (4/4) Accurately ripped  8   | (4/4) Accurately ripped  9   | (4/4) Accurately ripped 10   | (4/4) Accurately ripped[AccurateRip ID: 00107d32-0085a924-8b0ad60a] found.Track   [  CRC   |   V2   ] Status 01     [f1814576|6e27a406] (0+3/3) Accurately ripped 02     [496176f5|8c39025b] (0+3/3) Accurately ripped 03     [6854dda0|c4eeabf1] (0+3/3) Accurately ripped 04     [5501996e|caebe90f] (0+3/3) Accurately ripped 05     [542d13b5|7e715f55] (0+3/3) Accurately ripped 06     [2a4f4f59|7d598339] (0+3/3) Accurately ripped 07     [f7cb7c80|dc3698d3] (0+3/3) Accurately ripped 08     [2cabc429|d1e01577] (0+3/3) Accurately ripped 09     [a30c32ba|d658865b] (0+3/3) Accurately ripped 10     [b0ef257e|69ca72e3] (0+3/3) Accurately ripped
Track Peak [ CRC32 ] [W/O NULL] -- 98,4 [4D14F691] [393ED317] 01 98,4 [9DB5178C] [670CCB55] 02 98,4 [8C6E6802] [BABD8FF6] 03 98,4 [B79BBCC3] [AB29950B] 04 98,4 [4A35EC01] [B3BA6EA0] 05 98,4 [99C51D49] [AD909D79] 06 98,4 [844B6DA9] [AF044739] 07 98,4 [408E54FA] [4867F5BC] 08 98,4 [B6423FF4] [AF03F1DF] 09 98,4 [02977C9D] [6401AC5C] 10 98,4 [F3C4E242] [34D40FC7]

Об альбоме (сборнике)

Smooth Jazz Superstar Marion Meadows is without question one of the most popular and unique talents on the jazz scene today. Blessed with movie star looks and the smoothest saxophone tone on the planet, Marion has sold close to one million albums in his brilliant career. His constant string of radio hits and relentless touring have garnered legions of fans, and his appearances with such varied artists as The Temptations, Michael Bolton and Will Downing are a testament to his broad audience appeal.
Soul City, Marion's most intimate and heartfelt album to date, is a star-studded event that takes the listener on a sensuous journey through a soundscape of brilliant original compositions and masterful improvisations. The album is co-produced by Marion's long time hit-making collaborators, Chris "Big Dog" Davis (Will Downing, Gerald Albright, Maysa), Rahni Song (Najee, Melba Moore, Freddie Jackson) and Dave Love. Soul Traveler, Marion's previous Shanachie release, debuted at #1 on the Smooth Jazz charts, and garnered 3 top 10 Smooth Jazz Radio singles.
Highlights include the funky “Soul City” featuring Norman Brown, the deeply sensuous ballad “Be With You” with vocals by the amazing Will Downing, “Merry Go Round” featuring Smooth Jazz icon Peter White and much more!

If you like the topic, please click share to help develop our site.

To download the file disable ad blocking, and reload the page.

disable adblock How to disable ad blocking?

Download by magnet link 287 MB Download Torrent

Login using:

Similar topics



   
Current time is: 20-May 15:11 :: All times are UTC + 3