Beegie Adair & Monica Ramey

Some Enchanted Christmas





• Жанр: Mainstream Jazz
• Носитель: WEB
• Год издания: 2018
• Издатель: Burton Avenue Music
• Аудиокодек: FLAC (*.flac)
• Тип рипа: tracks
• Продолжительность: 00:49:14
• WEB релиз: ссылка
• Наличие сканов: front

01 - Happy Holiday (00:02:54)
02 - The Christmas Song (00:04:31)
03 - The Christmas Waltz (00:03:05)
04 - Jingle Bells (00:02:59)
05 - I'll Be Home For Christmas (00:04:16)
06 - Winter Wonderland (00:03:07)
07 - Frosty The Snowman (00:02:34)
08 - White Christmas (00:04:41)
09 - Let It Snow, Let It Snow, Let It Snow (00:03:06)
10 - (Wouldn't You Like) An Old-Fashioned Christmas (00:03:36)
11 - Santa Claus Is Coming To Town (00:03:21)
12 - Have Yourself A Merry Little Christmas (00:04:07)
13 - Up On The Housetop (00:02:39)
14 - What Are You Doing New Years Eve (00:04:12)

-
-

• Замер динамического диапазона •

foobar2000 1.3.17 / Замер динамического диапазона (DR) 1.1.1Дата отчёта:  2018-10-24 20:39:36
--------------------------------------------------------------------------------Анализ: Beegie Adair / Some Enchanted Christmas: An Intimate Piano and Vocal Holiday Collection--------------------------------------------------------------------------------
DR Пики RMS Продолжительность трека--------------------------------------------------------------------------------DR11 0.00 дБ -13.39 дБ 2:55 01-Happy HolidayDR11 -0.16 дБ -15.03 дБ 4:32 02-The Christmas SongDR11 0.00 дБ -13.65 дБ 3:06 03-The Christmas WaltzDR10 0.00 дБ -11.99 дБ 2:59 04-Jingle BellsDR10 -0.01 дБ -13.37 дБ 4:16 05-I'll Be Home for ChristmasDR11 0.00 дБ -13.04 дБ 3:08 06-Winter WonderlandDR11 0.00 дБ -12.69 дБ 2:34 07-Frosty the SnowmanDR11 -0.01 дБ -14.27 дБ 4:41 08-White ChristmasDR11 -0.01 дБ -13.61 дБ 3:06 09-Let It Snow, Let It Snow, Let It SnowDR10 -0.01 дБ -14.11 дБ 3:37 10-(Wouldn't You Like) an Old-Fashioned ChristmasDR11 0.00 дБ -12.82 дБ 3:21 11-Santa Claus Is Coming to TownDR11 -0.01 дБ -14.98 дБ 4:07 12-Have Yourself a Merry Little ChristmasDR10 0.00 дБ -12.60 дБ 2:40 13-Up on the HousetopDR12 0.00 дБ -14.25 дБ 4:13 14-What Are You Doing New Years Eve?--------------------------------------------------------------------------------
Количество треков: 14Реальные значения DR: DR11
Частота: 44100 ГцКаналов: 2Разрядность: 16Битрейт: 703 кбит/сКодек: FLAC================================================================================
-

• Лог проверки качества •

-----------------------
DON'T MODIFY THIS FILE
-----------------------
PERFORMER: auCDtect Task Manager, ver. 1.6.0 RC1 build 1.6.0.1Copyright (c) 2008-2010 y-soft. All rights reservedhttp://y-soft.org
ANALYZER: auCDtect: CD records authenticity detector, version 0.8.2Copyright (c) 2004 Oleg Berngardt. All rights reserved.Copyright (c) 2004 Alexander Djourik. All rights reserved.
FILE: 14 - What Are You Doing New Years Eve.flac Size: 22337794 Hash: 7AB5A53220D6E2EBFE1497A30F9B9963 Accuracy: -m0 Conclusion: CDDA 99% Signature: C0CA44209618A430FE9645ABD9D642A12A3B0F65FILE: 13 - Up On The Housetop.flac Size: 13869801 Hash: 078883F44A88C2333F9C939C26AA51BB Accuracy: -m0 Conclusion: CDDA 100% Signature: 7B40DFB929F402C060302EA96C7961E5D734AE2DFILE: 12 - Have Yourself A Merry Little Christmas.flac Size: 21793277 Hash: 5AC0A2932676F7A9CDA90E6E3045E0BE Accuracy: -m0 Conclusion: CDDA 100% Signature: D589B98931F94F9BD66C9CF275E9EC499BBAB4F1FILE: 11 - Santa Claus Is Coming To Town.flac Size: 18274591 Hash: E7E40313F923AC24CE5F0F2609AF36BE Accuracy: -m0 Conclusion: CDDA 100% Signature: BC9D108160A822E0715A7FF648F4C44AEB56CC5FFILE: 10 - (Wouldn't You Like) An Old-Fashioned Christmas.flac Size: 19033338 Hash: C4DAA102BCC30B183B23855058E644DA Accuracy: -m0 Conclusion: CDDA 100% Signature: 0D1D6A1085A21FC315AE2DCBA7B3D4D6F70CEA26FILE: 09 - Let It Snow, Let It Snow, Let It Snow.flac Size: 16392964 Hash: DC145B7A667D6ACCDB54585DE7793B03 Accuracy: -m0 Conclusion: CDDA 100% Signature: 88E5A0FBAAE0F13154564C31E56CEA2B0EB8B17BFILE: 08 - White Christmas.flac Size: 24930080 Hash: 3E29A1355A188D2CF740168DE0884A27 Accuracy: -m0 Conclusion: CDDA 100% Signature: BE9F007536F282BE58A1DEE088F0378EFCBD5A60FILE: 07 - Frosty The Snowman.flac Size: 14432760 Hash: 681B9957581D5E314CDC92EC3338B84A Accuracy: -m0 Conclusion: CDDA 99% Signature: B5B5734CC22D796B4349F7868A2D3572E701DF76FILE: 06 - Winter Wonderland.flac Size: 16867365 Hash: 3FF26CC7FA61CCD5A12E011BBD06B159 Accuracy: -m0 Conclusion: CDDA 100% Signature: E55C3D01559587CEADC0350816BA0A471CFE727EFILE: 05 - I'll Be Home For Christmas.flac Size: 22292380 Hash: 5A456B4FE3C4C8BC30B06834D21C1DC6 Accuracy: -m0 Conclusion: CDDA 99% Signature: 4CB7D896531419D875D2DB7952BB86236A9D6B65FILE: 04 - Jingle Bells.flac Size: 16733419 Hash: AB31F7EA05DD551827534B363CE0E42C Accuracy: -m0 Conclusion: CDDA 100% Signature: 1A965C52A6E9FED1866038C719C659F06A5A9D58FILE: 03 - The Christmas Waltz.flac Size: 16350275 Hash: 8978C0B8BF9A39D8BABC3AF7F608C7BF Accuracy: -m0 Conclusion: CDDA 100% Signature: 21E84A524C2993B87617C46D00D823B40CA0B39FFILE: 02 - The Christmas Song.flac Size: 23286695 Hash: 8495320BA54BCA5814C4CE192F0317ED Accuracy: -m0 Conclusion: CDDA 100% Signature: 83596AF7F720FC425C32CE77C481ACE4B39651A1FILE: 01 - Happy Holiday.flac Size: 14903456 Hash: 5D1A52D40D20AFD7059A613FA058B0E0 Accuracy: -m0 Conclusion: CDDA 100% Signature: 81DA19B79FB242FA26D4B2D74F0AD3A74C0FA64C
-

If you like the topic, please click share to help develop our site.

To download the file disable ad blocking, and reload the page.

disable adblock How to disable ad blocking?

Download by magnet link 250 MB Download Torrent

Login using:

Similar topics



   
Current time is: 19-May 23:20 :: All times are UTC + 3